Торрент файл
скачать торрент магнет ссылка Добавлен: 07 окт 2015, 11:31
Размер: 19.93 ГБ
Сидеров: 14
Личеров: 11
Автор

СообщениеДобавлено: 14 июл 2015, 21:49 

Не в сети
Зам. Админа
Аватара пользователя
Дата регистрации:
02 дек 2010, 12:39
Спасибо: 12461 / 214
Сообщения: 27968
Год выхода: 2015
Жанр: ужасы, фантастика, драма
Режиссер: Гильермо дель Торо, Дэвид Семел, Кит Гордон, Питер Уэллер
В ролях: Кори Столл, Дэвид Брэдли, Джим Уотсон, Кевин Дюран, Миа Маэстро, Бен Хайленд, Джонатан Хайд, Рихард Заммель, Мигель Гомес, Натали Браун, Джек Кеси, Шон Эстин, Роберт Мэйллет, Хавьер Ботет, Фрэнсис Капра, Роджер Р. Кросс, Лесли Хоуп, Реджина Кинг, Мелани Меркоски, Дрю Нельсон

О фильме:
В аэропорту Нью-Йорка совершает посадку трансатлантический лайнер с мертвыми пассажирами. В дальнейшем пассажиры оживают, только это уже не люди, а исчадия ада, беспощадные вампиры…

Качество: WEB-DLRip [720p]
Видео: MPEG-4 AVC, 1280x720, 23.976 fps, ~3823 Kbit/s
Аудио 1: АС3, 48000 Hz, 6 каналов, 384 kbit/s [Русский]
Аудио 2: АС3, 48000 Hz, 6 каналов, 384 kbit/s [Английский]
Продолжительность: 00:58:12
Перевод: Профессиональный (многоголосный)

General
Unique ID                      : 230457084061774074543294797620129351430 (0xAD606B7F293ADEC1AD6FBA3119CCC706)
Complete name                  : F:ЗагрузкиThe Strain - Season 2 (AlexFilm) WEB-DLRip 720pThe.Strain.s02e01.WEB-DLRip.720p.Rus.Eng.mkv
Format                         : Matroska
Format version                 : Version 4 / Version 2
File size                      : 1.90 GiB
Duration                       : 58mn 12s
Overall bit rate               : 4 684 Kbps
Movie name                     : The Strain 2x01 @ AlexFilm
Encoded date                   : UTC 2015-07-14 01:25:15
Writing application            : mkvmerge v7.1.0 ('Good Love') 64bit built on Jul 27 2014 13:06:55
Writing library                : libebml v1.3.0 + libmatroska v1.4.1

Video
ID                             : 1
Format                         : AVC
Format/Info                    : Advanced Video Codec
Format profile                 : High@L3.1
Format settings, CABAC         : No
Format settings, ReFrames      : 2 frames
Codec ID                       : V_MPEG4/ISO/AVC
Duration                       : 58mn 12s
Bit rate                       : 3 823 Kbps
Width                          : 1 280 pixels
Height                         : 720 pixels
Display aspect ratio           : 16:9
Frame rate mode                : Constant
Frame rate                     : 23.976 fps
Color space                    : YUV
Chroma subsampling             : 4:2:0
Bit depth                      : 8 bits
Scan type                      : Progressive
Bits/(Pixel*Frame)             : 0.173
Stream size                    : 1.55 GiB (82%)
Language                       : English
Default                        : Yes
Forced                         : No
Color range                    : Limited
Color primaries                : BT.709
Transfer characteristics       : BT.709
Matrix coefficients            : BT.709

Audio #1
ID                             : 2
Format                         : AC-3
Format/Info                    : Audio Coding 3
Mode extension                 : CM (complete main)
Format settings, Endianness    : Big
Codec ID                       : A_AC3
Duration                       : 58mn 12s
Bit rate mode                  : Constant
Bit rate                       : 384 Kbps
Channel(s)                     : 6 channels
Channel positions              : Front: L C R, Side: L R, LFE
Sampling rate                  : 48.0 KHz
Bit depth                      : 16 bits
Compression mode               : Lossy
Stream size                    : 160 MiB (8%)
Title                          : DD5.1 AlexFilm
Language                       : Russian
Default                        : Yes
Forced                         : No

Audio #2
ID                             : 3
Format                         : AC-3
Format/Info                    : Audio Coding 3
Mode extension                 : CM (complete main)
Format settings, Endianness    : Big
Codec ID                       : A_AC3
Duration                       : 58mn 12s
Bit rate mode                  : Constant
Bit rate                       : 384 Kbps
Channel(s)                     : 6 channels
Channel positions              : Front: L C R, Side: L R, LFE
Sampling rate                  : 48.0 KHz
Bit depth                      : 16 bits
Compression mode               : Lossy
Stream size                    : 160 MiB (8%)
Title                          : DD5.1 Original
Language                       : English
Default                        : No
Forced                         : No










реклама партнёра


Вернуться к началу
 Профиль  
 
   Похожие торренты   Автор   Торрент   Размер 
В этой теме нет новых непрочитанных сообщений. Штамм / The Strain [02x01-13 из 13] [ужасы, фантастика, драма, 2015] WEB-DLRip, Mvo [AlexFilm]

Dracon

37 | 38

7.26 ГБ

В этой теме нет новых непрочитанных сообщений. Штамм / The Strain [02x01-05 из 13] [ужасы, фантастика, драма, 2015] WEB-DL 1080p, Mvo [AlexFilm]

Dracon

1 | 6

9.74 ГБ

В этой теме нет новых непрочитанных сообщений. Штамм / The Strain [02x01-13 из 13] [ужасы, фантастика, драма, 2015] WEB-DLRip 720p, Mvo [LostFilm]

Dracon

21 | 29

17.46 ГБ

В этой теме нет новых непрочитанных сообщений. Штамм / The Strain [02x01-13 из 13] [ужасы, фантастика, драма, 2015] WEB-DLRip 720p, Mvo [NewStudio]

Dracon

8 | 8

20.16 ГБ

В этой теме нет новых непрочитанных сообщений. Штамм / The Strain [02x01-13 из 13] [ужасы, фантастика, драма, 2015] WEB-DLRip, Mvo [NewStudio]

Dracon

10 | 7

9.78 ГБ

В этой теме нет новых непрочитанных сообщений. Штамм / The Strain [02x01-13 из 13] [ужасы, фантастика, драма, 2015] WEB-DL 1080p, Mvo [LostFilm]

Dracon

21 | 22

25.23 ГБ

В этой теме нет новых непрочитанных сообщений. Штамм / The Strain [01х01-09 из 13] (Гильермо дель Торо, Дэвид Семел, Кит Гордон) [2014, ужасы, фантастика, драма, WEB-DLRip | AlexFilm]

Nickolas3435

52 | 68

4.67 ГБ


СообщениеДобавлено: 21 июл 2015, 11:40 

Не в сети
Зам. Админа
Аватара пользователя
Дата регистрации:
02 дек 2010, 12:39
Спасибо: 12461 / 214
Сообщения: 27968
Dracon писал(а):
Re: Штамм / The Strain [02x01-02 из 13] [ужасы, фантастика, драма, 2015] WEB-DLRip 720p, Mvo [AlexFilm]


Вернуться к началу
 Профиль  
 

СообщениеДобавлено: 28 июл 2015, 15:34 

Не в сети
Зам. Админа
Аватара пользователя
Дата регистрации:
02 дек 2010, 12:39
Спасибо: 12461 / 214
Сообщения: 27968
Dracon писал(а):
Re: Штамм / The Strain [02x01-03 из 13] [ужасы, фантастика, драма, 2015] WEB-DLRip 720p, Mvo [AlexFilm]


Вернуться к началу
 Профиль  
 

СообщениеДобавлено: 04 авг 2015, 12:45 

Не в сети
Зам. Админа
Аватара пользователя
Дата регистрации:
02 дек 2010, 12:39
Спасибо: 12461 / 214
Сообщения: 27968
Dracon писал(а):
Re: Штамм / The Strain [02x01-04 из 13] [ужасы, фантастика, драма, 2015] WEB-DLRip 720p, Mvo [NewStudio]


Вернуться к началу
 Профиль  
 

СообщениеДобавлено: 10 авг 2015, 12:18 

Не в сети
Зам. Админа
Аватара пользователя
Дата регистрации:
02 дек 2010, 12:39
Спасибо: 12461 / 214
Сообщения: 27968
Dracon писал(а):
Re: Штамм / The Strain [02x01-05 из 13] [ужасы, фантастика, драма, 2015] WEB-DLRip 720p, Mvo [AlexFilm]


Вернуться к началу
 Профиль  
 

СообщениеДобавлено: 26 авг 2015, 11:57 

Не в сети
Зам. Админа
Аватара пользователя
Дата регистрации:
02 дек 2010, 12:39
Спасибо: 12461 / 214
Сообщения: 27968
Dracon писал(а):
Re: Штамм / The Strain [02x01-07 из 13] [ужасы, фантастика, драма, 2015] WEB-DLRip 720p, Mvo [AlexFilm]


Вернуться к началу
 Профиль  
 

СообщениеДобавлено: 05 сен 2015, 15:22 

Не в сети
Зам. Админа
Аватара пользователя
Дата регистрации:
02 дек 2010, 12:39
Спасибо: 12461 / 214
Сообщения: 27968
Dracon писал(а):
Re: Штамм / The Strain [02x01-09 из 13] [ужасы, фантастика, драма, 2015] WEB-DLRip 720p, Mvo [AlexFilm]


Вернуться к началу
 Профиль  
 

СообщениеДобавлено: 13 сен 2015, 15:38 

Не в сети
Зам. Админа
Аватара пользователя
Дата регистрации:
02 дек 2010, 12:39
Спасибо: 12461 / 214
Сообщения: 27968
Dracon писал(а):
Re: Штамм / The Strain [02x01-10 из 13] [ужасы, фантастика, драма, 2015] WEB-DLRip 720p, Mvo [AlexFilm]


Вернуться к началу
 Профиль  
 

СообщениеДобавлено: 07 окт 2015, 11:31 

Не в сети
Зам. Админа
Аватара пользователя
Дата регистрации:
02 дек 2010, 12:39
Спасибо: 12461 / 214
Сообщения: 27968
Dracon писал(а):
Re: Штамм / The Strain [02x01-13 из 13] [ужасы, фантастика, драма, 2015] WEB-DLRip 720p, Mvo [AlexFilm]


Вернуться к началу
 Профиль  
 
Начать новую тему Ответить на тему  [ Сообщений: 9 ] 




Для Мосгорсуда, Роскомнадзора и рекламодателей:: mosgorsud-torrent[собачка]yandex.ru