Торрент файл
скачать торрент магнет ссылка Добавлен: 27 июн 2015, 12:01
Размер: 27.61 ГБ
Сидеров: 73
Личеров: 37
Статус: (salma3)
Автор

СообщениеДобавлено: 27 июн 2015, 12:01 

Не в сети
Супермодератор
Аватара пользователя
Дата регистрации:
15 фев 2012, 16:44
Возраст: 27
Спасибо: 5130 / 2089
Сообщения: 17350
Год выхода: 1996
Жанр: Фантастика, Мистика, Приключения
Режиссер: Трейси Торме, Роберк Вайс, Марио Аццопарди, Ричард Комптон, Дэвид Э. Пэкинпах, Джерри О’Коннелл
В ролях: Джерри О'Коннел, Сабрина Ллойд, Джон Рис-Дэвис, Клевант Деррикс, Кери Вюрер, Чарли О'Коннел, Роберт Флойд, Темби Локке, Лестер Барри, Уилл Сассо

О фильме:
Молодой и талантливый начинающий учёный Куин Мелори, работая в своём подвале над созданием антигравитационной машины, изобретает устройство создающее червоточины — порталы, связывающие два параллельных мира. После перехода путешественника сквозь такой портал, он оказывается в альтернативной реальности, которая может кардинально отличаться от нашей. При этом, перемещаясь через портал, путешественник не знает, в какой из бесчисленных вариаций параллельных вселенных он окажется. Устройство имеет таймер, ведущий обратный отсчёт времени. По истечении времени таймера путешественник возвращается в свою реальность. Процесс перехода сквозь портал был назван «скольжением» (отсюда и название сериала)



Страна: США
Студия: FOX (1-3 сезон), Sci-Fi (4-5 сезон)
Продолжительность: 13x45 мин.

Файл
Кодек: MPEG-2 Video (NTSC)
Качество: DVDRemux
Видео: 720x480 (4:3), 29.970 fps, ~5700~7300 Kbps, 0.550~0.700 bit/pixel
Звук и Перевод:
1) AC3, 48khz, 2ch, 256 kb/s - Авторский (одноголосный, закадровый): Визгунов Сергей (2x01-10,12)
2) AC3, 48khz, 2ch, 192 kb/s - Профессиональный (многоголосный, закадровый): Телеканал СТС (2x01-02,07,09-13)
3) MP3, 48khz, 2ch, 128kb/s - Профессиональный (многоголосный, закадровый): Телеканал SyFy (2x01-13)
4) AC3, 48khz, 2ch, 192 kb/s - Оригинал: English (2x01-13)

Субтитры: Английские, Испанские, Французcкие

Семпл

Общее
Уникальный идентификатор : 208860293973750630577494277258536936831 (0x9D2107891A0C7B358AD09DC91BC9E57F)
Полное имя : ...SlidersSeason 22x02 Love Gods [ВИЗГУНОВ (неполный)]+[СТС]+[SyFy]+[ENG].mkv
Формат : Matroska
Версия формата : Version 4 / Version 2
Размер файла : 2,08 Гбайт
Продолжительность : 44 м.
Режим общего битрейта : Переменный
Общий поток : 6663 Кбит/сек
Дата кодирования : UTC 2013-06-07 17:02:49
Программа кодирования : mkvmerge v6.2.0 ('Promised Land') built on Apr 28 2013 12:22:01
Библиотека кодирования : libebml v1.3.0 + libmatroska v1.4.0

Видео
Идентификатор : 1
Формат : MPEG Video
Версия формата : Version 2
Профиль формата : Main@Main
Параметр BVOP формата : Нет
Параметр матрицы формата : Выборочная
Идентификатор кодека : V_MPEG2
Идентификатор кодека/Информация: MPEG 1 or 2 Video
Продолжительность : 44 м.
Вид битрейта : Переменный
Битрейт : 5762 Кбит/сек
Максимальный битрейт : 9230 Кбит/сек
Ширина : 720 пикс.
Высота : 480 пикс.
Соотношение сторон : 4:3
Режим частоты кадров : Постоянный
Частота кадров : 29,970 кадр/сек
Стандарт вещания : NTSC
Цветовое пространство : YUV
Подвыборка цветности : 4:2:0
Битовая глубина : 8 бит
Тип развёртки : Чересстрочная
Порядок развёртки : Верхнее поле первое
Метод сжатия : С потерями
Бит/(Пиксели*Кадры) : 0.556
Размер потока : 1,79 Гбайт (86%)
Язык : English
Default : Нет
Forced : Нет

Аудио #1
Идентификатор : 2
Формат : AC-3
Формат/Информация : Audio Coding 3
Расширение режима : CM (complete main)
Параметр Endianness формата : Big
Идентификатор кодека : A_AC3
Продолжительность : 44 м.
Вид битрейта : Постоянный
Битрейт : 256 Кбит/сек
Каналы : 2 канала
Расположение каналов : Front: L R
Частота : 48,0 КГц
Битовая глубина : 16 бит
Метод сжатия : С потерями
Размер потока : 81,7 Мбайт (4%)
Заголовок : Визгунов [пропуск фразы 00:04:16]
Язык : Russian
Default : Да
Forced : Нет

Аудио #2
Идентификатор : 3
Формат : AC-3
Формат/Информация : Audio Coding 3
Расширение режима : CM (complete main)
Параметр Endianness формата : Big
Идентификатор кодека : A_AC3
Продолжительность : 44 м.
Вид битрейта : Постоянный
Битрейт : 192 Кбит/сек
Каналы : 2 канала
Расположение каналов : Front: L R
Частота : 48,0 КГц
Битовая глубина : 16 бит
Метод сжатия : С потерями
Размер потока : 61,2 Мбайт (3%)
Заголовок : СТС
Язык : Russian
Default : Нет
Forced : Нет

Аудио #3
Идентификатор : 4
Формат : MPEG Audio
Версия формата : Version 1
Профиль формата : Layer 3
Режим : Joint stereo
Расширение режима : MS Stereo
Идентификатор кодека : A_MPEG/L3
Идентификатор кодека/Подсказка : MP3
Продолжительность : 44 м.
Вид битрейта : Постоянный
Битрейт : 128 Кбит/сек
Каналы : 2 канала
Частота : 48,0 КГц
Метод сжатия : С потерями
Размер потока : 40,8 Мбайт (2%)
Заголовок : SyFy
Язык : Russian
Default : Нет
Forced : Нет

Аудио #4
Идентификатор : 5
Формат : AC-3
Формат/Информация : Audio Coding 3
Профиль формата : Dolby Digital
Расширение режима : CM (complete main)
Параметр Endianness формата : Big
Идентификатор кодека : A_AC3
Продолжительность : 44 м.
Вид битрейта : Постоянный
Битрейт : 192 Кбит/сек
Каналы : 2 канала
Расположение каналов : Front: L R
Частота : 48,0 КГц
Битовая глубина : 16 бит
Метод сжатия : С потерями
Размер потока : 61,2 Мбайт (3%)
Заголовок : English
Язык : English
Default : Нет
Forced : Нет

Текст #1
Идентификатор : 6
Формат : VobSub
Режим смешивания : zlib
Идентификатор кодека : S_VOBSUB
Идентификатор кодека/Информация: The same subtitle format used on DVDs
Язык : English
Default : Да
Forced : Нет

Текст #2
Идентификатор : 7
Формат : VobSub
Режим смешивания : zlib
Идентификатор кодека : S_VOBSUB
Идентификатор кодека/Информация: The same subtitle format used on DVDs
Язык : Spanish
Default : Нет
Forced : Нет

Текст #3
Идентификатор : 8
Формат : VobSub
Режим смешивания : zlib
Идентификатор кодека : S_VOBSUB
Идентификатор кодека/Информация: The same subtitle format used on DVDs
Язык : French
Default : Нет
Forced : Нет


Релиз от:


_________________



реклама партнёра


Вернуться к началу
 Профиль Отправить личное сообщение  
 
   Похожие торренты   Автор   Торрент   Размер 
В этой теме нет новых непрочитанных сообщений. Скользящие / Параллельные миры / Sliders [S03] [Фантастика, Мистика, Приключения, 1997] DVDRemux, Avo+2Mvo+Sub

salma3

45 | 54

46.5 ГБ

В этой теме нет новых непрочитанных сообщений. Скользящие / Параллельные миры / Sliders [S04] [Фантастика, Мистика, Приключения, 1998] DVDRemux, Avo+2Mvo+Sub

salma3

39 | 37

39.71 ГБ

В этой теме нет новых непрочитанных сообщений. Скользящие / Параллельные миры / Sliders [S05] [Фантастика, Мистика, Приключения, 1999] DVDRemux, Avo+2Mvo+Sub

salma3

23 | 25

32.24 ГБ

В этой теме нет новых непрочитанных сообщений. Скользящие / Параллельные миры / Sliders [S01] [Фантастика, Мистика, Приключения, 1995] DVDRemux, Avo+2Mvo+Sub

salma3

197 | 53

20.19 ГБ

В этой теме нет новых непрочитанных сообщений. Параллельные миры [Мелодрама, 2013] DVD5 [Лицензия]

Dracon

0 | 4

3.85 ГБ

В этой теме нет новых непрочитанных сообщений. Параллельные миры [Мелодрама, 2013] DVDRip [Лицензия]

Dracon

90 | 8

1.37 ГБ

В этой теме нет новых непрочитанных сообщений. В поисках приключений / The Quest [боевик, приключения, 1996] BDRip 720, 2Mvo+Dvo+Sub

salma3

19 | 4

3 ГБ


Начать новую тему Ответить на тему  [ 1 сообщение ] 




Для Мосгорсуда, Роскомнадзора и рекламодателей:: mosgorsud-torrent[собачка]yandex.ru