Торрент файл
скачать торрент магнет ссылка Добавлен: 23 авг 2015, 20:50
Размер: 14.46 ГБ
Сидеров: 9
Личеров: 5
Автор

СообщениеДобавлено: 21 июн 2015, 21:41 

Не в сети
Зам. Админа
Аватара пользователя
Дата регистрации:
02 дек 2010, 12:39
Спасибо: 12461 / 214
Сообщения: 27968
Год выхода: 2015
Жанр: Фантастика
Режиссер: Крис Грисмер, Паоло Барзмен, Энди Микита
В ролях: Том Эллисон, Тамсен МакДонаф, Аарон Эшмор, Роб Стюарт, Ханна Джон-Кэймен, Люк МакФарлейн, Сара Пауэр, Нора МакЛеллан, Морган Келли, Данка Щепанович, Фрэнк Мур

О фильме:
Сериал рассказывает о трио охотников за головами Джоне, Д’Эвинсе и Датче. Их команда промышляет охотой на преступников в далёкой галактике Квад, где вот-вот грянет классовая война. Герои поклялись друг другу, что не будут поддерживать ни одну из сторон конфликта, где бы они не оказались.


Качество: WEB-DL[720p]
Видео: MPEG4/ISO/AVC, 1280х720, 23,976 fps, 4165 Кбит/сек
Аудио 1: Русский: АС3, 48000 Hz, 6 ch, 384 kbit/s
Аудио 2: Английский: МР3, 48000 Hz, 6 ch, 384 kbit/s
Продолжительность: 1 х ~ 00:44:00
Перевод: Любительский (многоголосный) [Baibako]
Общее
Уникальный идентификатор : 226399780372721599363306390144757241793 (0xAA5302FAFC92C8E88396E725711B97C1)
Полное имя : D:ТОРРЕНТЫKilljoys.s01.720p.WEB-DLKilljoys.s01e01.720p.WEB-DL.mkv
Формат : Matroska
Версия формата : Version 4 / Version 2
Размер файла : 1,50 Гбайт
Продолжительность : 42 м.
Общий поток : 5025 Кбит/сек
Дата кодирования : UTC 2015-06-20 22:47:45
Программа кодирования : mkvmerge v8.0.0 ('Til The Day That I Die') 64bit
Библиотека кодирования : libebml v1.3.1 + libmatroska v1.4.2
DURATION : 00:42:51.104000000
NUMBER_OF_FRAMES : 80347
NUMBER_OF_BYTES : 123412992
_STATISTICS_WRITING_APP : mkvmerge v8.0.0 ('Til The Day That I Die') 64bit
_STATISTICS_WRITING_DATE_UTC : 2015-06-20 22:47:45
_STATISTICS_TAGS : BPS DURATION NUMBER_OF_FRAMES NUMBER_OF_BYTES

Видео
Идентификатор : 1
Формат : AVC
Формат/Информация : Advanced Video Codec
Профиль формата : High@L3.1
Параметр CABAC формата : Да
Параметр ReFrames формата : 5 кадров
Идентификатор кодека : V_MPEG4/ISO/AVC
Продолжительность : 42 м.
Битрейт : 4165 Кбит/сек
Ширина : 1280 пикселей
Высота : 720 пикселей
Соотношение сторон : 16:9
Режим частоты кадров : Постоянный
Частота кадров : 23,976 кадра/сек
Цветовое пространство : YUV
Субдискретизация насыщенности : 4:2:0
Битовая глубина : 8 бит
Тип развёртки : Прогрессивная
Бит/(Пиксели*Кадры) : 0.188
Размер потока : 1,24 Гбайт (83%)
Библиотека кодирования : x264 core 142 r2479 dd79a61
Настройки программы : cabac=1 / ref=5 / deblock=1:0:0 / analyse=0x3:0x113 / me=umh / subme=8 / psy=1 / psy_rd=1.00:0.00 / mixed_ref=1 / me_range=16 / chroma_me=1 / trellis=1 / 8x8dct=1 / cqm=0 / deadzone=21,11 / fast_pskip=1 / chroma_qp_offset=-2 / threads=12 / lookahead_threads=2 / sliced_threads=0 / nr=0 / decimate=1 / interlaced=0 / bluray_compat=0 / constrained_intra=0 / bframes=3 / b_pyramid=2 / b_adapt=2 / b_bias=0 / direct=3 / weightb=1 / open_gop=0 / weightp=2 / keyint=240 / keyint_min=24 / scenecut=40 / intra_refresh=0 / rc_lookahead=50 / rc=2pass / mbtree=1 / bitrate=4165 / ratetol=1.0 / qcomp=0.60 / qpmin=0 / qpmax=69 / qpstep=4 / cplxblur=20.0 / qblur=0.5 / vbv_maxrate=17500 / vbv_bufsize=17500 / nal_hrd=none / filler=0 / ip_ratio=1.40 / aq=1:1.00
Default : Нет
Forced : Нет
Основные цвета : BT.709
Характеристики трансфера : BT.709
Коэффициенты матрицы : BT.709

Аудио #1
Идентификатор : 2
Формат : AC-3
Формат/Информация : Audio Coding 3
Расширение режима : CM (complete main)
Параметр Endianness формата : Big
Идентификатор кодека : A_AC3
Продолжительность : 42 м.
Вид битрейта : Постоянный
Битрейт : 384 Кбит/сек
Каналы : 6 каналов
Расположение каналов : Front: L C R, Side: L R, LFE
Частота : 48,0 КГц
Битовая глубина : 16 бит
Метод сжатия : С потерями
Размер потока : 118 Мбайт (8%)
Язык : Russian
Default : Да
Forced : Нет

Аудио #2
Идентификатор : 3
Формат : AC-3
Формат/Информация : Audio Coding 3
Расширение режима : CM (complete main)
Параметр Endianness формата : Big
Идентификатор кодека : A_AC3
Продолжительность : 42 м.
Вид битрейта : Постоянный
Битрейт : 384 Кбит/сек
Каналы : 6 каналов
Расположение каналов : Front: L C R, Side: L R, LFE
Частота : 48,0 КГц
Битовая глубина : 16 бит
Метод сжатия : С потерями
Размер потока : 118 Мбайт (8%)
Язык : English
Default : Нет
Forced : Нет








реклама партнёра


Вернуться к началу
 Профиль  
 
   Похожие торренты   Автор   Торрент   Размер 
В этой теме нет новых непрочитанных сообщений. Киллджой / Killjoys [Season 1 episode 1-10 of 10] (Крис Грисмер, Паоло Барзмен, Энди Микита) [Фантастика, 2015] WEB-DL 1080p [Baibako]

Dracon

33 | 49

17.74 ГБ

В этой теме нет новых непрочитанных сообщений. Киллджой / Killjoys [Season 1 episode 1-10 of 10] (Крис Грисмер, Паоло Барзмен, Энди Микита) [Фантастика, 2015] WEBRip [Baibako]

Dracon

4 | 2

5.42 ГБ

В этой теме нет новых непрочитанных сообщений. Киллджой / Killjoys [Season 1 episode 1-10 of 10] (Крис Грисмер, Паоло Барзмен, Энди Микита) [Фантастика, 2015] WEB-DL 720p [LostFilm]

Dracon

65 | 19

12.86 ГБ

В этой теме нет новых непрочитанных сообщений. Киллджой / Killjoys [Season 1 episode 1-10 of 10] (Крис Грисмер, Паоло Барзмен, Энди Микита) [Фантастика, 2015] WEBRip [LostFilm]

Dracon

112 | 57

5.38 ГБ

В этой теме нет новых непрочитанных сообщений. Киллджой / Killjoys [Season 1 episode 1-10 of 10] (Крис Грисмер, Паоло Барзмен, Энди Микита) [Фантастика, 2015] WEB-DL 1080p [LostFilm]

Dracon

75 | 40

17.75 ГБ

В этой теме нет новых непрочитанных сообщений. Тёмная материя / Dark Matter [01х01-13 из 13] (Рон Мерфи, Т.Дж. Скотт, Паоло Барзмен) [фантастика, 2015] WEB-DL 720p [BaibaKo]

Dracon

6 | 5

18.7 ГБ

В этой теме нет новых непрочитанных сообщений. Тёмная материя / Dark Matter [01х01-13 из 13] (Рон Мерфи, Т.Дж. Скотт, Паоло Барзмен) [фантастика, 2015] WEB-DLRip [BaibaKo]

Dracon

77 | 33

7.88 ГБ


СообщениеДобавлено: 28 июн 2015, 11:54 

Не в сети
Зам. Админа
Аватара пользователя
Дата регистрации:
02 дек 2010, 12:39
Спасибо: 12461 / 214
Сообщения: 27968
Dracon писал(а):
Re: Киллджой / Killjoys [Season 1 episode 1-2 of 10] (Крис Грисмер, Паоло Барзмен, Энди Микита) [Фантастика, 2015] WEB-DL 720p [Baibako]


Вернуться к началу
 Профиль  
 

СообщениеДобавлено: 10 авг 2015, 11:50 

Не в сети
Зам. Админа
Аватара пользователя
Дата регистрации:
02 дек 2010, 12:39
Спасибо: 12461 / 214
Сообщения: 27968
Dracon писал(а):
Re: Киллджой / Killjoys [Season 1 episode 1-8 of 10] (Крис Грисмер, Паоло Барзмен, Энди Микита) [Фантастика, 2015] WEB-DL 720p [Baibako]


Вернуться к началу
 Профиль  
 

СообщениеДобавлено: 23 авг 2015, 20:50 

Не в сети
Зам. Админа
Аватара пользователя
Дата регистрации:
02 дек 2010, 12:39
Спасибо: 12461 / 214
Сообщения: 27968
Dracon писал(а):
Re: Киллджой / Killjoys [Season 1 episode 1-10 of 10] (Крис Грисмер, Паоло Барзмен, Энди Микита) [Фантастика, 2015] WEB-DL 720p [Baibako]


Вернуться к началу
 Профиль  
 
Начать новую тему Ответить на тему  [ Сообщений: 4 ] 




Для Мосгорсуда, Роскомнадзора и рекламодателей:: mosgorsud-torrent[собачка]yandex.ru