Торрент файл
скачать торрент магнет ссылка Добавлен: 18 июн 2015, 10:55
Размер: 8.21 ГБ
Сидеров: 63
Личеров: 6
Статус: (salma3)
Автор

СообщениеДобавлено: 18 июн 2015, 10:55 

Не в сети
Супермодератор
Аватара пользователя
Дата регистрации:
15 фев 2012, 16:44
Возраст: 27
Спасибо: 5143 / 2090
Сообщения: 17514
Дон Корлеоне / Il Capo dei capi /

Год выпуска: 2007
Жанр: драма, криминал, биография, история
Режиссер: Алексис Кехилл, Энсо Монтелеони

В ролях: Клаудио Джоэ, Даниэле Лиотти, Сальваторе Лаццаро, Симона Каваллари, Гаэтано Ароника, Франческо Ди Лоренцо, Андреа Тидона, Марко Леонарди, Джоя Спациани, Франческо Касиса, Матильде Пьяна,

Описание:
Драматический рассказ о жизненном пути Тото Рина, легендарного босса Коза Ностра. Фильм начинается в начале 1940-я годов, когда люди пытались выжить в условиях войны и нестабильности. Родившись в маленьком городке на юге Италии, Тото рано стал главой семьи после гибели отца при взрыве мины времен Первой мировой войны. Попав по влияние лидера клана Корлеоне, Тото принимает активное участие в борьбе за власть в мафиозной среде, которую ведут Корлеоне, и постепенно превращается в одну из самых заметных фигур в "семье". Одна из сюжетных линий "Корлеоне" - о врагах Рина, безжалостно преследовавших мафию. История заканчивается в 1993 году, когда Тото Рина был арестован капитаном Ультимо, который разыскал и не побоялся заключить под стражу главу мафиози.



Страна: Италия
Продолжительность: 12 х ~ 00:50:16
Перевод: Профессиональный (многоголосый, закадровый)

Файл
Качество: DVDRip
Формат файла: AVI
Видео кодек: XviD
Аудио кодек: AC3
Видео: 688x384 (16:9), 25 fps, XviD MPEG-4 ~1592 kbps avg, 0.241 bit/pixel
Аудио: 48 kHz, АС3, 6 ch, Front: L C R, Side: L R, LFE ~448.00 kbps avg


Общее
Полное имя : C:\Users\Admin\Downloads\Don.Korleone.(12.serii.iz.12).2007.DivX.DVDRip.Kinozal.TV\Don.Korleone.(01.seriya.iz.12).2007.DivX.DVDRip.Kinozal.TV.avi
Формат : AVI
Формат/Информация : Audio Video Interleave
Размер файла : 701 Мбайт
Продолжительность : 47 м.
Общий поток : 2050 Кбит/сек
Программа кодирования : VirtualDubMod 1.5.10.2 (build 2540/release)
Библиотека кодирования : VirtualDubMod build 2540/release

Видео
Идентификатор : 0
Формат : MPEG-4 Visual
Параметр BVOP формата : 1
Параметр QPel формата : Нет
Параметр GMC формата : Без точки перехода
Параметр матрицы формата : Default (MPEG)
Режим смешивания : Сжатый битовый поток
Идентификатор кодека : DX50
Идентификатор кодека/Подсказка : DivX 5
Продолжительность : 47 м.
Битрейт : 1592 Кбит/сек
Ширина : 688 пикселей
Высота : 384 пикселя
Соотношение сторон : 16:9
Частота кадров : 25,000 кадров/сек
Цветовое пространство : YUV
Субдискретизация насыщенности : 4:2:0
Битовая глубина : 8 бит
Тип развёртки : Прогрессивная
Метод сжатия : С потерями
Бит/(Пиксели*Кадры) : 0.241
Размер потока : 545 Мбайт (78%)
Библиотека кодирования : DivX 5.2.1 Beta (UTC 2004-09-08)

Аудио
Идентификатор : 1
Формат : AC-3
Формат/Информация : Audio Coding 3
Расширение режима : CM (complete main)
Параметр Endianness формата : Big
Идентификатор кодека : 2000
Продолжительность : 47 м.
Вид битрейта : Постоянный
Битрейт : 448 Кбит/сек
Каналы : 6 каналов
Расположение каналов : Front: L C R, Side: L R, LFE
Частота : 48,0 КГц
Битовая глубина : 16 бит
Метод сжатия : С потерями
Задержка видео : 8 мс.
Размер потока : 153 Мбайт (22%)
Выравнивание : Разделение по промежуткам
Продолжительность промежутка : 40 мс. (1,00 видеокадр)
Время предзагрузки промежутка : 500 мс.




_________________



реклама партнёра


Вернуться к началу
 Профиль Отправить личное сообщение  
 
   Похожие торренты   Автор   Торрент   Размер 
В этой теме нет новых непрочитанных сообщений. Вероника Марс / Veronica Mars / 1-3 сезоны 1-64 серии из 64 [драма, мелодрама, криминал, детектив, 2004-2007] DVDRip, Mvo+Dvo [НТВ / NovaFilm]

salma3

4 | 2

24.77 ГБ

В этой теме нет новых непрочитанных сообщений. Love - Da Capo - 1967 (Remastered) [2013, Rock, MP3]

PriZraK

0 | 1

83.77 МБ

В этой теме нет новых непрочитанных сообщений. Огневая мощь / Firepower / 34 серии из 34 [документальный, оружие, история, 2005-2007] SATRip, Avo

salma3

47 | 28

12.62 ГБ

В этой теме нет новых непрочитанных сообщений. Убийство / Forbrydelsen / 1-3 сезоны 1-40 серии из 40 [триллер, драма, криминал, детектив, 2007] HDRip, Mvo [Первый / Baibako]

salma3

2 | 4

34.26 ГБ

В этой теме нет новых непрочитанных сообщений. Чёрная гвоздика / The Black Pimpernel [Триллер, драма, история, 2007] DVDRip, Dvo

salma3

103 | 6

1.49 ГБ

В этой теме нет новых непрочитанных сообщений. Иаков. Сразившийся с Ангелом / Jacob [драма, криминал, биография, история, 1994] DVDRip-AVC, Mvo

salma3

30 | 10

1.57 ГБ

В этой теме нет новых непрочитанных сообщений. Возвращение Мартина Герра / Le retour de Martin Guerre [драма, мелодрама, криминал, детектив, биография, история, 1982] DVDRip, Mvo

salma3

3 | 2

1.46 ГБ


Начать новую тему Ответить на тему  [ 1 сообщение ] 




Для Мосгорсуда, Роскомнадзора и рекламодателей:: mosgorsud-torrent[собачка]yandex.ru