Торрент файл
скачать торрент магнет ссылка Добавлен: 03 сен 2015, 11:12
Размер: 18.62 ГБ
Сидеров: 7
Личеров: 6
Автор

СообщениеДобавлено: 13 июн 2015, 10:50 

Не в сети
Зам. Админа
Аватара пользователя
Дата регистрации:
02 дек 2010, 12:39
Спасибо: 12461 / 214
Сообщения: 27968
Год выхода: 2015
Жанр: Детектив, криминал, драма
Режиссер: Гильермо Наварро, Майкл Раймер, Дэвид Слэйд
В ролях: Мадс Миккельсен, Хью Дэнси, Каролин Давернас, Лара Жан Чоростецки, Аарон Абрамс, Лоренс Фишбёрн, Эттьенн Парк, Скотт Томпсон, Торианна Ли, Демор Барнс

О фильме:
Уилл Грэхэм — одаренный профайлер, который вместе с ФБР разыскивает серийного убийцу. Уникальный способ мышления Грэма дает ему удивительную способность глубоко проникаться чувствами другого человека, даже психопата. Он может понять, что ими движет. Но когда ум преследуемого убийцы оказывается слишком сложным, он прибегает к помощи доктора Лектера, одного из ведущих психиатрических умов в стране.

Качество: WEB-DL [720p]
Видео: MPEG-4 AVC, 1280x718, 23.976 fps, ~3946 Kbit/s
Аудио 1: АС3, 48000 Hz, 6 каналов, 384 kbit/s Русский
Аудио 2: АС3, 48000 Hz, 6 каналов, 384 kbit/s Английский
Продолжительность: 2х~ 00:43:00
Перевод: Профессиональный (многоголосный) NewStudio

General
Unique ID                      : 279264193166781530481792944649744637989 (0xD21853C37A516451FDD418F675B76025)
Complete name                  : F:ЗагрузкиHannibal s03 720p NewStudioHannibal.s03e01.720p.WEBDL.mkv
Format                         : Matroska
Format version                 : Version 4 / Version 2
File size                      : 1.46 GiB
Duration                       : 43mn 7s
Overall bit rate               : 4 859 Kbps
Encoded date                   : UTC 2015-06-06 02:22:01
Writing application            : mkvmerge v7.4.0 ('Circles') 64bit
Writing library                : libebml v1.3.0 + libmatroska v1.4.1
_STATISTICS_WRITING_APP        : mkvmerge v7.4.0 ('Circles') 64bit
_STATISTICS_WRITING_DATE_UTC   : 2015-06-06 02:22:01
_STATISTICS_TAGS               : BPS DURATION NUMBER_OF_FRAMES NUMBER_OF_BYTES
DURATION                       : 00:43:07.968000000
NUMBER_OF_FRAMES               : 80874
NUMBER_OF_BYTES                : 124222464

Video
ID                             : 1
Format                         : AVC
Format/Info                    : Advanced Video Codec
Format profile                 : High@L3.1
Format settings, CABAC         : No
Format settings, ReFrames      : 2 frames
Codec ID                       : V_MPEG4/ISO/AVC
Duration                       : 43mn 7s
Bit rate                       : 3 995 Kbps
Width                          : 1 280 pixels
Height                         : 718 pixels
Display aspect ratio           : 16:9
Frame rate mode                : Constant
Frame rate                     : 23.976 fps
Color space                    : YUV
Chroma subsampling             : 4:2:0
Bit depth                      : 8 bits
Scan type                      : Progressive
Bits/(Pixel*Frame)             : 0.181
Stream size                    : 1.20 GiB (82%)
Language                       : English
Default                        : Yes
Forced                         : No
Color range                    : Limited
Color primaries                : BT.709
Transfer characteristics       : BT.709
Matrix coefficients            : BT.709

Audio #1
ID                             : 2
Format                         : AC-3
Format/Info                    : Audio Coding 3
Mode extension                 : CM (complete main)
Format settings, Endianness    : Big
Codec ID                       : A_AC3
Duration                       : 43mn 7s
Bit rate mode                  : Constant
Bit rate                       : 384 Kbps
Channel(s)                     : 6 channels
Channel positions              : Front: L C R, Side: L R, LFE
Sampling rate                  : 48.0 KHz
Bit depth                      : 16 bits
Compression mode               : Lossy
Stream size                    : 118 MiB (8%)
Title                          : NewStudio.TV
Language                       : Russian
Default                        : Yes
Forced                         : No

Audio #2
ID                             : 3
Format                         : AC-3
Format/Info                    : Audio Coding 3
Mode extension                 : CM (complete main)
Format settings, Endianness    : Big
Codec ID                       : A_AC3
Duration                       : 43mn 7s
Bit rate mode                  : Constant
Bit rate                       : 384 Kbps
Channel(s)                     : 6 channels
Channel positions              : Front: L C R, Side: L R, LFE
Sampling rate                  : 48.0 KHz
Bit depth                      : 16 bits
Compression mode               : Lossy
Stream size                    : 118 MiB (8%)
Language                       : English
Default                        : No
Forced                         : No








реклама партнёра


Вернуться к началу
 Профиль  
 
   Похожие торренты   Автор   Торрент   Размер 
В этой теме нет новых непрочитанных сообщений. Ганнибал / Hannibal [Season 3, Episodes 1-13 of 13] (Гильермо Наварро, Майкл Раймер, Дэвид Слэйд) [Детектив, триллер, криминал, драма, 2015] WEB-DL 720p [Jaskier]

Dracon

93 | 97

18.2 ГБ

В этой теме нет новых непрочитанных сообщений. Ганнибал / Hannibal [Season 3 episode 1-13] (Гильермо Наварро, Майкл Раймер, Дэвид Слэйд) [Детектив, триллер, криминал, драма, 2015] HDTVRip 720p [AlexFilm]

Dracon

7 | 8

21.52 ГБ

В этой теме нет новых непрочитанных сообщений. Ганнибал / Hannibal [03х01-13 из 13] (Гильермо Наварро, Майкл Раймер, Дэвид Слэйд) [Детектив, триллер, криминал, драма, 2015] WEB-DLRip [NewStudio]

Dracon

127 | 50

7.65 ГБ

В этой теме нет новых непрочитанных сообщений. Ганнибал / Hannibal [Season 3 episode 1-13] (Гильермо Наварро, Майкл Раймер, Дэвид Слэйд) [Детектив, триллер, криминал, драма, 2015] HDTVRip [AlexFilm]

Dracon

312 | 252

7.19 ГБ

В этой теме нет новых непрочитанных сообщений. Ганнибал / Hannibal [Season 3 episode 1-13] (Гильермо Наварро, Майкл Раймер, Дэвид Слэйд) [Детектив, триллер, криминал, драма, 2015] HDTVRip [Sony SciFi]

Dracon

600 | 413

7.13 ГБ

В этой теме нет новых непрочитанных сообщений. Ганнибал / Hannibal [Season 3 episode 1-11,13] (Гильермо Наварро, Майкл Раймер, Дэвид Слэйд) [Детектив, триллер, криминал, драма, 2015] HDTVRip [Sony SciFi]

Dracon

12 | 22

6.65 ГБ

В этой теме нет новых непрочитанных сообщений. Ганнибал / Hannibal [03х01-13 из 13] (Гильермо Наварро, Майкл Раймер, Дэвид Слэйд) [детектив, криминал, драма, 2015] HDTVRip 720p [Sony Sci Fi]

Dracon

215 | 245

15.36 ГБ


СообщениеДобавлено: 04 июл 2015, 10:51 

Не в сети
Зам. Админа
Аватара пользователя
Дата регистрации:
02 дек 2010, 12:39
Спасибо: 12461 / 214
Сообщения: 27968
Dracon писал(а):
Re: Ганнибал / Hannibal [Season 3, Episodes 1-5 of 13] (Гильермо Наварро, Майкл Раймер, Дэвид Слэйд) [Детектив, триллер, криминал, драма, 2015] WEB-DL 720p [NewStudio]


Вернуться к началу
 Профиль  
 

СообщениеДобавлено: 04 авг 2015, 11:35 

Не в сети
Зам. Админа
Аватара пользователя
Дата регистрации:
02 дек 2010, 12:39
Спасибо: 12461 / 214
Сообщения: 27968
Dracon писал(а):
Re: Ганнибал / Hannibal [Season 3, Episodes 1-9 of 13] (Гильермо Наварро, Майкл Раймер, Дэвид Слэйд) [Детектив, триллер, криминал, драма, 2015] WEB-DL 720p [NewStudio]


Вернуться к началу
 Профиль  
 

СообщениеДобавлено: 03 сен 2015, 11:12 

Не в сети
Зам. Админа
Аватара пользователя
Дата регистрации:
02 дек 2010, 12:39
Спасибо: 12461 / 214
Сообщения: 27968
Dracon писал(а):
Re: Ганнибал / Hannibal [Season 3, Episodes 1-13 of 13] (Гильермо Наварро, Майкл Раймер, Дэвид Слэйд) [Детектив, триллер, криминал, драма, 2015] WEB-DL 720p [NewStudio]


Вернуться к началу
 Профиль  
 
Начать новую тему Ответить на тему  [ Сообщений: 4 ] 




Для Мосгорсуда, Роскомнадзора и рекламодателей:: mosgorsud-torrent[собачка]yandex.ru