Торрент файл
скачать торрент магнет ссылка Добавлен: 14 май 2015, 00:14
Размер: 7.35 ГБ
Сидеров: 36
Личеров: 12
Статус: (salma3)
Автор

СообщениеДобавлено: 14 май 2015, 00:14 

Не в сети
Супермодератор
Аватара пользователя
Дата регистрации:
15 фев 2012, 16:44
Возраст: 27
Спасибо: 5143 / 2090
Сообщения: 17478
Раскопки / Dig /


Режиссер: Гидеон Рафф, Милисент Шелтон, Аллан Аркуш
Жанр: триллер, драма, детектив
Всего серий: 10

Год выпуска: 2015
В ролях: Джейсон Айзекс, Элисон Судол, Энн Хеч, Ори Феффер, Анджела Беттис, Дэвид Костабайл, Зен МакГрат, Ричард Э. Грант, Лорен Эмброуз, Омар Метуолли

Описание:
Агент ФБР в Иерусалиме расследует обстоятельства убийства молодой женщины - археолога. Она погибла не просто так. В ходе расследования Питер узнаёт о многовековом заговоре, которому уже 2000 лет, и кторый способен радикально повлиять на ход человеческой истории...



Страна: США
Продолжительность: 10 х ~ 00:44:00
Перевод: Профессиональный (многоголосый, закадровый) [BaibaKo]

Файл
Качество: WEB-DLRip-AVC
Формат файла: MKV
Видео кодек: H.264
Аудио кодек: AC3
Видео: 1024х576 (16:9), 23,976 fps, AVC (х264), , ~2000 Kbps avg, 0.141 bit/pixel
Аудио: 48.0 KHz, AC3 Dolby Digital, 6 channels (Front: L C R, Side: L R, LFE), ~384 kbps avg


Доп. информация: звук перевода и оригинальная дорожка Dolby Digital 5.1
Полноэкранное изображение (16:9)

    Общее
    Уникальный идентификатор : 332101301545281821560703281504218296087 (0xF9D86255CB1BF93667D365FD4EE8AF17)
    Полное имя : D:\Video\...\raskopki_s01e01_[tfile.me].mkv
    Формат : Matroska
    Версия формата : Version 2
    Размер файла : 1,08 Гбайт
    Продолжительность : 1 ч. 5 м.
    Общий поток : 2386 Кбит/сек
    Дата кодирования : UTC 2015-03-08 11:25:38
    Программа кодирования : Lavf54.63.104
    Библиотека кодирования : Lavf54.63.104

    Видео
    Идентификатор : 1
    Формат : AVC
    Формат/Информация : Advanced Video Codec
    Профиль формата :
    Параметр CABAC формата : Да
    Параметр ReFrames формата : 2 кадра
    Идентификатор кодека : V_MPEG4/ISO/AVC
    Продолжительность : 1 ч. 5 м.
    Битрейт : 2000 Кбит/сек
    Ширина : 1024 пикселя
    Высота : 576 пикселей
    Соотношение сторон : 16:9
    Режим частоты кадров : Постоянный
    Частота кадров : 23,976 кадра/сек
    Цветовое пространство : YUV
    Субдискретизация насыщенности : 4:2:0
    Битовая глубина : 8 бит
    Тип развёртки : Прогрессивная
    Бит/(Пиксели*Кадры) : 0.141
    Размер потока : 909 Мбайт (82%)
    Библиотека кодирования : x264 core 129
    Настройки программы : cabac=1 / ref=2 / deblock=1:0:0 / analyse=0x3:0x113 / me=hex / subme=6 / psy=1 / psy_rd=1.00:0.00 / mixed_ref=1 / me_range=16 / chroma_me=1 / trellis=0 / 8x8dct=1 / cqm=0 / deadzone=21,11 / fast_pskip=1 / chroma_qp_offset=-2 / threads=4 / lookahead_threads=1 / sliced_threads=0 / nr=0 / decimate=1 / interlaced=0 / bluray_compat=0 / constrained_intra=0 / bframes=0 / weightp=2 / keyint=250 / keyint_min=25 / scenecut=40 / intra_refresh=0 / rc_lookahead=40 / rc=2pass / mbtree=1 / bitrate=2000 / ratetol=1.0 / qcomp=0.60 / qpmin=10 / qpmax=51 / qpstep=4 / cplxblur=20.0 / qblur=0.5 / ip_ratio=1.41 / aq=1:1.00
    Default : Да
    Forced : Нет

    Аудио
    Идентификатор : 2
    Формат : AC-3
    Формат/Информация : Audio Coding 3
    Расширение режима : CM (complete main)
    Параметр Endianness формата : Big
    Идентификатор кодека : A_AC3
    Продолжительность : 1 ч. 5 м.
    Вид битрейта : Постоянный
    Битрейт : 384 Кбит/сек
    Каналы : 6 каналов
    Расположение каналов : Front: L C R, Side: L R, LFE
    Частота : 48,0 КГц
    Битовая глубина : 16 бит
    Метод сжатия : С потерями
    Размер потока : 179 Мбайт (16%)
    Default : Да
    Forced : Нет




_________________



реклама партнёра


Вернуться к началу
 Профиль Отправить личное сообщение  
 
   Похожие торренты   Автор   Торрент   Размер 
В этой теме нет новых непрочитанных сообщений. Под куполом / Under the Dome / 3 сезон 1-13 серии из 13 [фантастика, триллер, драма, детектив, 2015] WEB-DLRip, Mvo [BaibaKo]

Dracon

101 | 121

6.92 ГБ

В этой теме нет новых непрочитанных сообщений. Тайны и ложь / Secrets & Lies / 1 сезон 1-10 серии из 10 [триллер, драма, детектив, 2015] WEB-DLRip, Dub [Кириллица]

salma3

230 | 39

7.23 ГБ

В этой теме нет новых непрочитанных сообщений. Слепая зона / Blindspot / 1 сезон 1-23 серии из 23 [триллер, драма, детектив, 2015-2016] WEB-DLRip-AVC, Mvo [LostFilm]

salma3

89 | 44

16.35 ГБ

В этой теме нет новых непрочитанных сообщений. Слепая зона / Слепое пятно / Blindspot / 1 сезон 1-20 серии из 22 [триллер, драма, детектив, 2015] WEB-DLRip, Mvo [NewStudio]

salma3

13 | 39

7.92 ГБ

В этой теме нет новых непрочитанных сообщений. Слепая зона / Слепое пятно / Blindspot / 1 сезон 1-20 серии из 22 [триллер, драма, детектив, 2015] WEB-DLRip, Mvo [NewStudio]

salma3

43 | 61

10.55 ГБ

В этой теме нет новых непрочитанных сообщений. Сверхъестественное / Supernatural / 10 сезон 1-23 серии из 23 [ужасы, фэнтези, триллер, драма, детектив, 2014-2015] WEB-DLRip, Mvo [LostFilm]

salma3

1797 | 1630

8.88 ГБ

В этой теме нет новых непрочитанных сообщений. Сонная Лощина / Sleepy Hollow / 3 сезон 1-16 серии из 18 [фэнтези, триллер, драма, детектив, приключения, 2015] WEB-DLRip, Mvo [NewStudio]

salma3

20 | 62

8.44 ГБ


Начать новую тему Ответить на тему  [ 1 сообщение ] 




Для Мосгорсуда, Роскомнадзора и рекламодателей:: mosgorsud-torrent[собачка]yandex.ru