Торрент файл
скачать торрент магнет ссылка Добавлен: 22 июл 2015, 20:04
Размер: 10.74 ГБ
Сидеров: 62
Личеров: 63
Статус: (salma3)
Автор

СообщениеДобавлено: 13 май 2015, 23:59 

Не в сети
Супермодератор
Аватара пользователя
Дата регистрации:
15 фев 2012, 16:44
Возраст: 27
Спасибо: 5143 / 2090
Сообщения: 17514
Государственный секретарь / Madam Secretary /

Год выпуска: 2014
Жанр: драма
Режиссер: Дэвид Семел

В ролях: Теа Леони, Тим Дэли, Марин Хинкль, Можан Марно, Себастьян Аркелус, Эрих Берген, Майкл Аронов, Майк Пневски, Мария Ди Анджелис, Патина Ренеа Миллер, Желько Иванек

Описание:
Главная героиня Элизабет МакКорд много лет проработала в ЦРУ. Так сложилось, что она оставила карьеру. Но вскоре девушке предложили снова вернуться в строй и стать государственным секретарем. Теперь именно от Элизабет зависит, как будет представлена её страна на политической арене. На девушке лежит огромная ответственность. Порой, ей приходится принимать быстрые решения и делать непростой выбор. Дома у Элизабет тоже всё складывается не так уж гладко, ведь новая работа забирает у неё все силы.



Страна: США, Barbara Hall Productions, Revelations Entertainment, CBS Television Studios
Продолжительность: 22 x ~ 00:42:00
Перевод: Любительский (двухголосый) (kiitos.tv)

Файл
Качество: WEB-DLRip
Формат файла: AVI
Видео кодек: XviD
Аудио кодек: MP3
Видео: 720x400 (1.80:1), 25 fps, XviD MPEG-4 ~1328 kbps avg, 0.192 bit/pixel
Аудио: 48 kHz, MPEG Layer 3, 2 ch, ~192.00 kbps avg


Общее
Полное имя : C:\Users\Admin\Downloads\MadamSecretary.s01.e01.kiitos.tv.avi
Формат : AVI
Формат/Информация : Audio Video Interleave
Размер файла : 500 Мбайт
Продолжительность : 45 м.
Общий поток : 1529 Кбит/сек
Программа кодирования : VirtualDubMod 1.5.10.2 (build 2540/release)
Библиотека кодирования : VirtualDubMod build 2540/release

Видео
Идентификатор : 0
Формат : MPEG-4 Visual
Профиль формата : Advanced Simple@L5
Параметр BVOP формата : Нет
Параметр QPel формата : Нет
Параметр GMC формата : Без точки перехода
Параметр матрицы формата : Default (H.263)
Идентификатор кодека : XVID
Идентификатор кодека/Подсказка : XviD
Продолжительность : 45 м.
Битрейт : 1328 Кбит/сек
Ширина : 720 пикселей
Высота : 400 пикселей
Соотношение сторон : 16:9
Частота кадров : 23,976 кадра/сек
Цветовое пространство : YUV
Субдискретизация насыщенности : 4:2:0
Битовая глубина : 8 бит
Тип развёртки : Прогрессивная
Метод сжатия : С потерями
Бит/(Пиксели*Кадры) : 0.192
Размер потока : 434 Мбайт (87%)
Библиотека кодирования : XviD 1.2.1 (UTC 2008-12-04)

Аудио
Идентификатор : 1
Формат : MPEG Audio
Версия формата : Version 1
Профиль формата : Layer 3
Режим : Joint stereo
Идентификатор кодека : 55
Идентификатор кодека/Подсказка : MP3
Продолжительность : 45 м.
Вид битрейта : Постоянный
Битрейт : 192 Кбит/сек
Каналы : 2 канала
Частота : 48,0 КГц
Метод сжатия : С потерями
Размер потока : 62,8 Мбайт (13%)
Выравнивание : Соединение по промежуткам
Продолжительность промежутка : 42 мс. (1,00 видеокадр)
Время предзагрузки промежутка : 504 мс.

Внимание! Раздача ведётся путём добавления новых серий; при каждом добавлении создаётся новый торрент. Чтобы начать докачку новой серии, пользователям необходимо сделать следующее:
(1) остановить скачивание,
(2) удалить старый торрент у себя из клиента (старые серии удалять не надо),
(3) скачать новый торрент и запустить его у себя в клиенте вместо старого, при этом указать клиенту путь в старую папку куда и должно происходить скачивание новых серий.

Ваш клиент при этом должен произвести хеширование (проверку) старой папки (если не производит сам - помогите ему сделать это), и будет докачивать только те серии которых у вас ещё нет. Старые серии при этом не удаляются, а продолжают раздаваться!

Eсли вы уже удалили старые серии, то предотвратить повторную закачку старых серий можно, отжав галочку в соответсвующих местах при запуске нового торрента. По возможности, желательно не удалять старые серии как можно дольше чтобы релизёр не столько продолжал раздавать старые серии, а смог сконцентрироваться на новых.




_________________



реклама партнёра


Вернуться к началу
 Профиль Отправить личное сообщение  
 
   Похожие торренты   Автор   Торрент   Размер 
В этой теме нет новых непрочитанных сообщений. Madam Adam - Madam Adam [2011, Modern Rock, Post-Grunge, MP3]

PriZraK

0 | 1

82.55 МБ

В этой теме нет новых непрочитанных сообщений. Сталкер / Stalker / 1 сезон 1-20 серии из 20 [триллер, драма, 2014] WEB-DLRip, Mvo [NewStudio]

salma3

103 | 65

10.74 ГБ

В этой теме нет новых непрочитанных сообщений. Воскрешение / Resurrection / 2 сезон 1-13 серии из 13 [Фэнтези, драма, 2014] WEB-DLRip, Mvo [NewStudio]

salma3

109 | 95

6.98 ГБ

В этой теме нет новых непрочитанных сообщений. Воскрешение / Resurrection / 1 сезон 1-8 серии из 8 [Фэнтези, драма, 2014] WEB-DLRip, Mvo [NewStudio]

salma3

234 | 51

4.3 ГБ

В этой теме нет новых непрочитанных сообщений. Легенды / Legends / 1 сезон 1-7 серии из 10 [криминал, драма, 2014] WEB-DLRip, Mvo [BaibaKo]

salma3

18 | 7

3.83 ГБ

В этой теме нет новых непрочитанных сообщений. Стрела / Arrow / 3 сезон 1-23 серии из 23 [фантастика, боевик, драма, 2014] WEB-DLRip, Mvo [NewStudio]

salma3

847 | 1057

12.35 ГБ

В этой теме нет новых непрочитанных сообщений. Агенты Щ.И.Т / Agents of S.H.I.E.L.D / 2 сезон 1-22 серии из 22 [фантастика, боевик, драма, 2014] WEB-DLRip, Mvo [LostFilm]

salma3

29 | 12

10.74 ГБ


СообщениеДобавлено: 22 июл 2015, 20:04 

Не в сети
Супермодератор
Аватара пользователя
Дата регистрации:
15 фев 2012, 16:44
Возраст: 27
Спасибо: 5143 / 2090
Сообщения: 17514
salma3 писал(а):
Re: Государственный секретарь / Madam Secretary / 1 сезон 1-22 серии из 22 [драма, 2014] WEB-DLRip, Dvo

_________________


Вернуться к началу
 Профиль Отправить личное сообщение  
 
Начать новую тему Ответить на тему  [ Сообщений: 2 ] 




Для Мосгорсуда, Роскомнадзора и рекламодателей:: mosgorsud-torrent[собачка]yandex.ru