Торрент файл
скачать торрент магнет ссылка Добавлен: 10 май 2015, 10:57
Размер: 4.69 ГБ
Сидеров: 982
Личеров: 115
Автор

СообщениеДобавлено: 10 май 2015, 10:57 

Не в сети
Зам. Админа
Аватара пользователя
Дата регистрации:
02 дек 2010, 12:39
Спасибо: 12461 / 214
Сообщения: 27968
Год выпуска: 2015
Жанр: Детектив, военный
Выпущено: Россия, Кинокомпания Триикс Медиа
Режиссер: Александр Якимчук
В ролях: Сергей Юшкевич, Александр Фисенко, Олег Федоров (III), Георгий Неусыпов, Иван Патраман, Виталий Жигалин, Андрей Котов (II), Валерий Малюшин, Юлия Горшенина, Ольга Гагарина, Ирина Умикова, Роман Притула, Екатерина Новикова, Ринат Ибрагимов, Сергей Гарусов, Денис Рейшахрит

О фильме: 1944 год. Диверсионная группа под руководством капитана Сергея Туманова возвращается из-за линии фронта после выполнения важного задания. Чтобы оторваться от преследования Туманов принимает непростое решение избавиться от двух пленных немецких офицеров – иначе жизнь его людей окажется под угрозой. Позже за это решение Туманова арестовывают сотрудники НКВД, но опытному диверсанту удается сбежать. 1947 год. В послевоенном Ленинграде происходит несколько громких преступлений. Сотрудники отдела по борьбе с бандитизмом вскоре выясняют, что все эти преступления объединяет одна особенность – они слишком тщательно спланированы. Начальник ОББ Юрий Некрылов понимает, что столкнулся с крайне опасным преступником, и обычными методами его не задержать. Потому что этот преступник – бывший советский разведчик Сергей Туманов…

Качество: HDTVRip (720p)
Видео: MPEG-4 AVC, ~ 3500 Кбит/с, 1280x720, 25.000 кадр/с
Аудио: AC3, 2 ch, 192 Кбит/с
Размер: 4.69 ГБ
Продолжительность: 4 х ~ 00:45:00
Язык: Русский
x264 [info]: frame I:467 Avg QP:14.36 size:113260
x264 [info]: frame P:19057 Avg QP:18.10 size: 36841
x264 [info]: frame B:44998 Avg QP:20.77 size: 8316

Общее
Уникальный идентификатор : 247432723556451821558119254260326398230 (0xBA25CF2493A1C73197E5C51546CCF916)
Полное имя : F:Belaya.noch.2015.HDTVRip.(720p).by.bog3417Belaya.noch.(01.seriya.iz.04).2015.HDTVRip.(720p).by.bog3417.mkv
Формат : Matroska
Версия формата : Version 2
Размер файла : 1,11 Гбайт
Продолжительность : 43 м.
Общий поток : 3694 Кбит/сек
Название фильма : Belaya.noch.(01.seriya.iz.04).2015.HDTVRip.(720p).by.bog3417
Дата кодирования : UTC 2015-05-10 02:45:15
Программа кодирования : mkvmerge v7.4.0 ('Circles') 64bit built on Dec 12 2014 12:19:56
Библиотека кодирования : libebml v1.3.0 + libmatroska v1.4.1
DURATION : 00:43:00.864000000
NUMBER_OF_FRAMES : 80652
NUMBER_OF_BYTES : 61940736
_STATISTICS_WRITING_APP : mkvmerge v7.4.0 ('Circles') 64bit built on Dec 12 2014 12:19:56
_STATISTICS_WRITING_DATE_UTC : 2015-05-10 02:45:15
_STATISTICS_TAGS : BPS DURATION NUMBER_OF_FRAMES NUMBER_OF_BYTES
Видео
Идентификатор : 1
Формат : AVC
Формат/Информация : Advanced Video Codec
Профиль формата : High@L4.1
Параметр CABAC формата : Да
Параметр ReFrames формата : 9 кадров
Идентификатор кодека : V_MPEG4/ISO/AVC
Продолжительность : 43 м.
Битрейт : 3500 Кбит/сек
Ширина : 1280 пикселей
Высота : 720 пикселей
Соотношение сторон : 16:9
Режим частоты кадров : Постоянный
Частота кадров : 25,000 кадров/сек
Цветовое пространство : YUV
Субдискретизация насыщенности : 4:2:0
Битовая глубина : 8 бит
Тип развёртки : Прогрессивная
Бит/(Пиксели*Кадры) : 0.152
Размер потока : 1,03 Гбайт (93%)
Заголовок : Belaya.noch.(01.seriya.iz.04).2015.HDTVRip.(720p).by.bog3417
Библиотека кодирования : x264 core 146 r2538 121396c
Настройки программы : cabac=1 / ref=9 / deblock=1:-3:-3 / analyse=0x3:0x33 / me=umh / subme=10 / psy=1 / psy_rd=1.00:0.15 / mixed_ref=1 / me_range=32 / chroma_me=1 / trellis=2 / 8x8dct=1 / cqm=0 / deadzone=21,11 / fast_pskip=0 / chroma_qp_offset=-3 / threads=12 / lookahead_threads=2 / sliced_threads=0 / nr=0 / decimate=0 / interlaced=0 / bluray_compat=0 / constrained_intra=0 / bframes=9 / b_pyramid=2 / b_adapt=2 / b_bias=0 / direct=3 / weightb=1 / open_gop=0 / weightp=2 / keyint=250 / keyint_min=25 / scenecut=40 / intra_refresh=0 / rc_lookahead=60 / rc=2pass / mbtree=1 / bitrate=3500 / ratetol=1.0 / qcomp=0.60 / qpmin=0 / qpmax=69 / qpstep=4 / cplxblur=20.0 / qblur=0.5 / ip_ratio=1.40 / aq=3:0.90
Default : Да
Forced : Нет
Аудио
Идентификатор : 2
Формат : AC-3
Формат/Информация : Audio Coding 3
Расширение режима : CM (complete main)
Параметр Endianness формата : Big
Идентификатор кодека : A_AC3
Продолжительность : 43 м.
Вид битрейта : Постоянный
Битрейт : 192 Кбит/сек
Каналы : 2 канала
Расположение каналов : Front: L R
Частота : 48,0 КГц
Битовая глубина : 16 бит
Метод сжатия : С потерями
Размер потока : 59,1 Мбайт (5%)
Default : Да
Forced : Нет









реклама партнёра


Вернуться к началу
 Профиль  
 
   Похожие торренты   Автор   Торрент   Размер 
В этой теме нет новых непрочитанных сообщений. Белая ночь [Серии 1-4 из 4] (Александр Якимчук) [Военный, 2015] HDTVRip

Dracon

31 | 4

2.15 ГБ

В этой теме нет новых непрочитанных сообщений. Белая ночь [01-04 из 04] (Александр Якимчук) [Военный, 2014] HDTV 1080i

Dracon

269 | 27

13.18 ГБ

В этой теме нет новых непрочитанных сообщений. Белая белая ночь (Рамиль Салахутдинов) [Драма, детектив, 2014] WEB-DL 1080p

Dracon

16 | 4

4.85 ГБ

В этой теме нет новых непрочитанных сообщений. Белая белая ночь (Рамиль Салахутдинов) [Драма, детектив, 2014] WEB-DLRip

Dracon

280 | 14

1.46 ГБ

В этой теме нет новых непрочитанных сообщений. Иные / 4440 / 444 [1 сезон: 1-16 серии из 16] (Александр Якимчук) [Мистическая драма с элементами детектива, 2015] SATRip

Dracon

95 | 19

9.86 ГБ

В этой теме нет новых непрочитанных сообщений. Белая стрела. Возмездие [01-12 из 12] (Алексей Шикин, Александр Строев) [Детектив, 2015] DVB

Dracon

184 | 49

10.14 ГБ

В этой теме нет новых непрочитанных сообщений. Белая стрела. Возмездие [01-12 из 12] (Алексей Шикин, Александр Строев) [Детектив, 2015] SATRip

Dracon

466 | 95

7.62 ГБ


Начать новую тему Ответить на тему  [ 1 сообщение ] 




Для Мосгорсуда, Роскомнадзора и рекламодателей:: mosgorsud-torrent[собачка]yandex.ru