[ 1 сообщение ] 
Автор Сообщение

СообщениеДобавлено: 03 май 2015, 16:45 

Не в сети
Зам. Админа
Аватара пользователя

Спасибо: 12461 / 214
Сообщения: 27968
Дата регистрации: 02 дек 2010, 12:39
Торренты: 13632
Год выхода: 2014
Жанр: драма, мелодрама, военный, история
Режиссер: Хилаль Сарал
В ролях: Кыванч Татлытуг, Фара Зейнеп Абдулла, Berk Erçer, Сердар Гёкхан, Седа Гувен, Sarp Can Köroglu, Биркан Сокуллу, Ushan Çakir, Сергей Тэсслер

О фильме:
Герои переживут крах правящей царской династии и Октябрьскую революцию. На фоне этих исторических событий, полных трагизма, горьких утрат, жестоких разочарований, и развернется история любви между бывшим офицером Царской армии лейтенантом Куртом Сеитом и шестнадцатилетней девушкой из аристократического рода Шурой.
Официальный сайт
Страна: Турция
Студия: Ay Yapim, Star TV
Продолжительность: ~ 01:30:00 серия
Перевод: Професиональный (полное дублирование) [Дубляж выполнен студией "СВ-Дубль" по заказу телеканала "Домашний"]

Кодек: XviD / MP3
Качество: SATRip
Видео: MPEG4, XviD, 704x400 (16:9), 25.000 fps, 1 699 Kbps (0.241 bit/pixel)
Звук: MP3, 44.1 KHz, 2 ch, 192 Kbps, CBR
General
Complete name : Kurt.Seit.i.Alexandra.01.sezon.(001.serija.iz.13).2014.XviD.SATRip.avi
Format : AVI
Format/Info : Audio Video Interleave
File size : 1.15 GiB
Duration : 1h 26mn
Overall bit rate : 1 901 Kbps
Writing library : VirtualDub build 35491/release

Video
ID : 0
Format : MPEG-4 Visual
Format profile : Advanced Simple@L5
Format settings, BVOP : 2
Format settings, QPel : No
Format settings, GMC : No warppoints
Format settings, Matrix : Default (H.263)
Muxing mode : Packed bitstream
Codec ID : XVID
Codec ID/Hint : XviD
Duration : 1h 26mn
Bit rate : 1 699 Kbps
Width : 704 pixels
Height : 400 pixels
Display aspect ratio : 16:9
Frame rate : 25.000 fps
Color space : YUV
Chroma subsampling : 4:2:0
Bit depth : 8 bits
Scan type : Progressive
Compression mode : Lossy
Bits/(Pixel*Frame) : 0.241
Stream size : 1.02 GiB (89%)
Writing library : XviD 73

Audio
ID : 1
Format : MPEG Audio
Format version : Version 1
Format profile : Layer 3
Codec ID : 55
Codec ID/Hint : MP3
Duration : 1h 26mn
Bit rate mode : Constant
Bit rate : 192 Kbps
Channel(s) : 2 channels
Sampling rate : 44.1 KHz
Compression mode : Lossy
Stream size : 119 MiB (10%)
Alignment : Split accross interleaves
Interleave, duration : 40 ms (1.00 video frame)
Interleave, preload duration : 500 ms


У вас нет необходимых прав для просмотра вложений в этом сообщении.


Вернуться к началу
 Профиль  
 
 [ 1 сообщение ] 
   Похожие темы   Автор   Ответы   Просмотры 
В этой теме нет новых непрочитанных сообщений. Курт Сеит и Александра / Kurt Seyit ve Sura [01-02x01-21] (Хилаль Сарал) [драма, мелодрама, военный, история, 2014] SATRip, Dub

Dracon

175

В этой теме нет новых непрочитанных сообщений. Курт Сеит и Александра / Kurt Seyit ve Sura [01x01-08 из 08] (Хилаль Сарал) [2014, драма, мелодрама, военный, история, WEB-DLRip]

Nickolas3435

262

В этой теме нет новых непрочитанных сообщений. Викинги / Vikings [02x01-10 из 10] [Боевик, драма, военный, история, 2014] WEB-DLRip, Mvo [NewStudio]

Dracon

1066

В этой теме нет новых непрочитанных сообщений. Викинги / Vikings [02x01-03 из 10] [Боевик, драма, военный, история, 2014] WEB-DLRip-AVC, Mvo [NewStudio]

Dracon

342

В этой теме нет новых непрочитанных сообщений. Великолепный век / Muhtesem Yüzyil [04x01-36 (104-139)] (Мерт Байкал, Ягиз Алп Акайдын) [2013-2014, Драма, мелодрама, военный, биография, история, реальные события, экранизация, WEB-DLRip]

Nickolas3435

633

В этой теме нет новых непрочитанных сообщений. Белые росы. Возвращение (Александра Бутор) [Комедия, Мелодрама, 2014] TVRip

Dracon

1220

В этой теме нет новых непрочитанных сообщений. Дети войны / Children of War [драма, военный, история, 2014] DVDRip, DVO

salma3

574





Перейти:  

Для Мосгорсуда, Роскомнадзора и рекламодателей:: mosgorsud-torrent[собачка]yandex.ru