Торрент файл
скачать торрент магнет ссылка Добавлен: 29 мар 2015, 18:31
Размер: 5.15 ГБ
Сидеров: 0
Личеров: 3
Автор

СообщениеДобавлено: 29 мар 2015, 18:31 

Не в сети
Супермодератор
Аватара пользователя
Дата регистрации:
06 июн 2014, 07:51
Спасибо: 576 / 0
Сообщения: 2002
Страна: Южная Корея
Год выпуска: 2014 г.
Жанр: Психология, криминал, драма
Продолжительность: 10 эпизодов по ~60 минут.
Режиссер: Sung Yong-Il
В ролях:
Сон Чхан Ый - профессор Пэк Нам Бон (доктор Фрост)
Чон Ын Чхэ - Юн Сон А
Ли Юн Чжи - профессор Сон
Сон Чи Ру - детектив Нам Тхэ Бон
Чхве Чон У - Чон Сан Вон (декан факультета психологии)

Описание: В центре истории - доктор психологии Пэк Нам Бон. Он настоящий гений, однако из-за перенесенной в детстве операции на мозге не способен сопереживать. За свою неэмоциональность он получает прозвище "доктор Фрост".

Благодаря тонкому уму и удивительной способности подмечать мелочи, он становится помощником полиции при раскрытии преступлений.
(Дорама основана на популярной веб-манхве).

Озвучка - Любительская (двухголосая закадровая)
Kinko (Женский)
Aleister (Мужской)
Семпл

Качество видео: HDTVRip (360р)
Формат видео: AVI
Тип релиза: Полухардсаб (надписи, пояснения терминов)
Видео: XviD, 624x352, 1 397 Кбит/сек, 29.970 кадров/сек
Аудио: AC-3, 2.0, 192 кбит/с, 48,0 кГц

1. Другое желание.
2. Провал в памяти.
3. Как носить маску.
4. Опасная любовь.
5. Память.
6. Два солнца.
7. Истерзанный ребенок
8. Лжецы.
General
Complete name : F:Dr.Frost (TVRip 624x352 XviD AC-3 ru) [Kinko,Aleister]Dr.Frost 01 [Kinko,Aleister].avi
Format : AVI
Format/Info : Audio Video Interleave
File size : 672 MiB
Duration : 58mn 39s
Overall bit rate : 1 601 Kbps
Writing application : PotEncoder
Writing library : VirtualDub build 35491/release

Video
ID : 0
Format : MPEG-4 Visual
Format profile : Advanced Simple@L5
Format settings, BVOP : 2
Format settings, QPel : No
Format settings, GMC : No warppoints
Format settings, Matrix : Default (H.263)
Muxing mode : Packed bitstream
Codec ID : XVID
Codec ID/Hint : XviD
Duration : 58mn 39s
Bit rate : 1 397 Kbps
Width : 624 pixels
Height : 352 pixels
Display aspect ratio : 16:9
Frame rate : 29.970 fps
Color space : YUV
Chroma subsampling : 4:2:0
Bit depth : 8 bits
Scan type : Progressive
Compression mode : Lossy
Bits/(Pixel*Frame) : 0.212
Stream size : 586 MiB (87%)
Writing library : XviD 73

Audio
ID : 1
Format : AC-3
Format/Info : Audio Coding 3
Mode extension : CM (complete main)
Format settings, Endianness : Big
Codec ID : 2000
Duration : 58mn 39s
Bit rate mode : Constant
Bit rate : 192 Kbps
Channel(s) : 2 channels
Channel positions : Front: L R
Sampling rate : 48.0 KHz
Bit depth : 16 bits
Compression mode : Lossy
Stream size : 80.6 MiB (12%)
Alignment : Aligned on interleaves
Interleave, duration : 33 ms (1.00 video frame)
Interleave, preload duration : 512 ms




реклама партнёра


Вернуться к началу
 Профиль Отправить личное сообщение  
 
   Похожие торренты   Автор   Торрент   Размер 
В этой теме нет новых непрочитанных сообщений. Доктор Фрост / Dr. Frost [01-08] (Sung Yong-Il) [2014, Психология, криминал, драма, HDTVRip 720р]

Nickolas3435

0 | 2

9.18 ГБ

В этой теме нет новых непрочитанных сообщений. Фрост против Никсона / Frost/Nixon [Драма, история, 2008] BDRip 1080р, Dub+Sub

salma3

30 | 2

7.9 ГБ

В этой теме нет новых непрочитанных сообщений. Натиск / Доктор Кайф / Rush [01x01] (Билл Джонсон, Джонатан Левин, Деран Сарафян) [2014, драма, криминал, WEB-DLRip | BaibaKo]

Nickolas3435

171 | 30

587.63 МБ

В этой теме нет новых непрочитанных сообщений. Натиск / Доктор Кайф / Rush [01x02 из 10] (Билл Джонсон, Джонатан Левин, Деран Сарафян) [2014, драма, криминал, WEB-DLRip | BaibaKo]

Nickolas3435

114 | 43

1.14 ГБ

В этой теме нет новых непрочитанных сообщений. Frost Commander – Invincible [2014, Power Metal, MP3]

PriZraK

5 | 2

134.34 МБ

В этой теме нет новых непрочитанных сообщений. Доктор с другой планеты / Доктор Пришелец / Доктор Чужой / Dr. Alien [фантастика, комедия, 1989] DVDRip, Avo

salma3

77 | 11

1.46 ГБ

В этой теме нет новых непрочитанных сообщений. Доктор Смерть [01-04 из 04] [Драма, криминал, 2013] SATRip

Dracon

153 | 12

2.38 ГБ


Начать новую тему Ответить на тему  [ 1 сообщение ] 




Для Мосгорсуда, Роскомнадзора и рекламодателей:: mosgorsud-torrent[собачка]yandex.ru