Торрент файл
скачать торрент магнет ссылка Добавлен: 29 мар 2015, 18:31
Размер: 9.18 ГБ
Сидеров: 0
Личеров: 2
Автор

СообщениеДобавлено: 29 мар 2015, 18:31 

Не в сети
Супермодератор
Аватара пользователя
Дата регистрации:
06 июн 2014, 07:51
Спасибо: 576 / 0
Сообщения: 2002
Страна: Южная Корея
Год выпуска: 2014 г.
Жанр: Психология, криминал, драма
Продолжительность: 10 эпизодов по ~60 минут.
Режиссер: Sung Yong-Il
В ролях:
Сон Чхан Ый - профессор Пэк Нам Бон (доктор Фрост)
Чон Ын Чхэ - Юн Сон А
Ли Юн Чжи - профессор Сон
Сон Чи Ру - детектив Нам Тхэ Бон
Чхве Чон У - Чон Сан Вон (декан факультета психологии)

Описание: В центре истории - доктор психологии Пэк Нам Бон. Он настоящий гений, однако из-за перенесенной в детстве операции на мозге не способен сопереживать. За свою неэмоциональность он получает прозвище "доктор Фрост".
Благодаря тонкому уму и удивительной способности подмечать мелочи, он становится помощником полиции при раскрытии преступлений.
(Дорама основана на популярной веб-манхве).

Озвучка - Любительская (двухголосая закадровая)
Kinko (Женский)
Aleister (Мужской)
Семпл

Качество видео: HDTVRip (720р)
Формат видео: AVI
Тип релиза: Полухардсаб (надписи, пояснения терминов)
Видео: XviD, 1280x720, 3000 Кбит/сек, 29.970 кадров/сек
Аудио: AC-3, 2.0, 192 кбит/с, 48,0 кГц

1. Другое желание.
2. Провал в памяти.
3. Как носить маску.
4. Опасная любовь.
5. Память.
6. Два солнца.
7. Истерзанный ребенок.
8. Лжецы.
General
Complete name : D:Dr.Frost (HDTVRip 1280x720 XviD AC-3 ru) [Kinko,Aleister]Dr.Frost 01 [Kinko,Aleister].avi
Format : AVI
Format/Info : Audio Video Interleave
File size : 1.32 GiB
Duration : 58mn 39s
Overall bit rate : 3 211 Kbps
Writing application : VirtualDubMod 1.5.10.2 (build 2542/release)
Writing library : VirtualDubMod build 2542/release

Video
ID : 0
Format : MPEG-4 Visual
Format profile : Advanced Simple@L5
Format settings, BVOP : 2
Format settings, QPel : No
Format settings, GMC : No warppoints
Format settings, Matrix : Default (H.263)
Muxing mode : Packed bitstream
Codec ID : XVID
Codec ID/Hint : XviD
Duration : 58mn 39s
Bit rate : 3 008 Kbps
Width : 1 280 pixels
Height : 720 pixels
Display aspect ratio : 16:9
Frame rate : 29.970 fps
Color space : YUV
Chroma subsampling : 4:2:0
Bit depth : 8 bits
Scan type : Progressive
Compression mode : Lossy
Bits/(Pixel*Frame) : 0.109
Stream size : 1.23 GiB (94%)
Writing library : XviD 73

Audio
ID : 1
Format : AC-3
Format/Info : Audio Coding 3
Mode extension : CM (complete main)
Format settings, Endianness : Big
Codec ID : 2000
Duration : 58mn 39s
Bit rate mode : Constant
Bit rate : 192 Kbps
Channel(s) : 2 channels
Channel positions : Front: L R
Sampling rate : 48.0 KHz
Bit depth : 16 bits
Compression mode : Lossy
Stream size : 80.6 MiB (6%)
Alignment : Split accross interleaves
Interleave, duration : 33 ms (1.00 video frame)
Interleave, preload duration : 500 ms





реклама партнёра


Вернуться к началу
 Профиль Отправить личное сообщение  
 
   Похожие торренты   Автор   Торрент   Размер 
В этой теме нет новых непрочитанных сообщений. Доктор Фрост / Dr. Frost [01-08] (Sung Yong-Il) [2014, Психология, криминал, драма, TVRip]

Nickolas3435

0 | 3

5.15 ГБ

В этой теме нет новых непрочитанных сообщений. Фрост против Никсона / Frost/Nixon [Драма, история, 2008] BDRip 1080р, Dub+Sub

salma3

30 | 2

7.9 ГБ

В этой теме нет новых непрочитанных сообщений. Все в порядке, это любовь / Просто это любовь / Ничего страшного, это любовь / It's Okay It's Love [01-16 из 16](Ким Кю Тхэ)[2014, мелодрама, романтика, комедия, психология, HDTVRip 720р]

Nickolas3435

9 | 5

18.51 ГБ

В этой теме нет новых непрочитанных сообщений. Доктор-чужестранец / Dakteo Yibangin / Doctor Stranger [01-20 из 20] (Джин Хёк) [Медицина, драма, 2014] HDTVRip, dvo

Dracon

24 | 11

11.19 ГБ

В этой теме нет новых непрочитанных сообщений. Хищник / MOZU / Shrike [01x01-09] (Эйитиро Хасуми) [2014, Триллер, драма, HDTVRip 720р | ViruseProject]

Nickolas3435

5 | 3

12.95 ГБ

В этой теме нет новых непрочитанных сообщений. Жертва / Prey [S02] (Ник Мерфи, Льюис Арнольд) [2015, криминал, драма, триллер, детектив, HDTVRip 720р | ViruseProject]

Nickolas3435

101 | 14

2.97 ГБ

В этой теме нет новых непрочитанных сообщений. Каждая секретная вещь / Every Secret Thing [Триллер, драма, криминал, детектив, 2014] WEB-DL 720р, Avo

salma3

148 | 11

3.09 ГБ


Начать новую тему Ответить на тему  [ 1 сообщение ] 




Для Мосгорсуда, Роскомнадзора и рекламодателей:: mosgorsud-torrent[собачка]yandex.ru