Торрент файл
скачать торрент магнет ссылка Добавлен: 19 апр 2015, 11:22
Размер: 15.4 ГБ
Сидеров: 57
Личеров: 208
Автор

СообщениеДобавлено: 29 мар 2015, 10:21 

Не в сети
Зам. Админа
Аватара пользователя
Дата регистрации:
02 дек 2010, 12:39
Спасибо: 12461 / 214
Сообщения: 27968
Год выхода: 2015
Жанр: боевик, драма, военный, история
Режиссер: Йохан Ренк, Киаран Доннелли, Кен Джиротти и др.
В ролях: Трэвис Фиммел, Клайв Стэнден, Гэбриел Бирн, Кэтрин Уинник, Джессалин Гилсиг, Джордж Благден, Густаф Скарсгард, Торбьорн Харр, Владимир Кулих, Донал Лог, Айван Кэй, Мод Хирст, Эрик Хиггинс, Герард Маккарти, Юко Ахола, Эми Де Брюн, Сэм Смит, Билл Гибсон, Кевин Мюррэй

О фильме:
История повествует о приключениях величайшего героя своего времени – Рагнара Лодброка. В сериале показан Рагнар со своим племенем братьев-викингов и его семьёй в процессе становления королём всех племён викингов. Рагнар – бесстрашный воин, и религиозный викинг, который объединяет все племена и распространяет среди них поклонение скандинавским богам. Согласно легенде, он – прямой потомок Одина, бога войны и воителей.


Страна: Ирландия, Канада
Продолжительность: ~00:45:00 серия
Перевод:
Многоголосый закадровый, профессиональный | LostFilm
Многоголосый закадровый, профессиональный | NewStudio
Многоголосый закадровый, профессиональный | AlexFilm

Кодек: MPEG-4 AVC/H.264
Качество: WEB-DL 720p
Видео: AVC, 1280x718 (1.778), 23.976 fps, ~3933 kbps, 0.179 bit/pixel
Звук:
Аудио rus: AC-3, 48 KHz, 6 ch, 384 kbps | LostFilm
Аудио rus: AC-3, 48 KHz, 6 ch, 384 kbps | NewStudio
Аудио rus: AC-3, 48 KHz, 6 ch, 384 kbps | AlexFilm
Аудио eng: AC-3, 48 KHz, 6 ch, 384 kbps
Субтитры: русские (notabenoid), английские

Семпл

01. Наёмник /Mercenary
02. Странник /The Wanderer
03. Путь воина /Warrior's Fate
04. Шрам /Scarred
05. Узурпатор /The Usurper
06. Рождённый заново /Born Again
Общее
Уникальный идентификатор : 181904876562292270960486064169712119020 (0x88D99AD96CBBCEC8A31B9521F57C6CEC)
Полное имя : F:FilmsVikings.s03.720p.L.N.AVikings.S03E01.720p.WEB-DL.3xRus.Eng.mkv
Формат : Matroska
Версия формата : Version 4 / Version 2
Размер файла : 1,76 Гбайт
Продолжительность : 45 м.
Общий поток : 5565 Кбит/сек
Дата кодирования : UTC 2015-02-21 23:10:04
Программа кодирования : mkvmerge v7.5.0 ('Glass Culture') 64bit built on Jan 4 2015 16:48:44
Библиотека кодирования : libebml v1.3.1 + libmatroska v1.4.2
_STATISTICS_WRITING_APP : mkvmerge v7.5.0 ('Glass Culture') 64bit built on Jan 4 2015 16:48:44
_STATISTICS_WRITING_DATE_UTC : 2015-02-21 23:10:04
_STATISTICS_TAGS : BPS DURATION NUMBER_OF_FRAMES NUMBER_OF_BYTES
DURATION : 00:43:37.445000000
NUMBER_OF_FRAMES : 411
NUMBER_OF_BYTES : 20702

Видео
Идентификатор : 1
Формат : AVC
Формат/Информация : Advanced Video Codec
Профиль формата : High@L3.1
Параметр CABAC формата : Нет
Параметр ReFrames формата : 2 кадра
Идентификатор кодека : V_MPEG4/ISO/AVC
Продолжительность : 45 м.
Битрейт : 3919 Кбит/сек
Ширина : 1280 пикселей
Высота : 718 пикселей
Соотношение сторон : 16:9
Режим частоты кадров : Постоянный
Частота кадров : 23,976 кадра/сек
Цветовое пространство : YUV
Субдискретизация насыщенности : 4:2:0
Битовая глубина : 8 бит
Тип развёртки : Прогрессивная
Бит/(Пиксели*Кадры) : 0.178
Размер потока : 1,24 Гбайт (70%)
Язык : English
Default : Да
Forced : Нет
Основные цвета : BT.709
Характеристики трансфера : BT.709
Коэффициенты матрицы : BT.709

Аудио #1
Идентификатор : 2
Формат : AC-3
Формат/Информация : Audio Coding 3
Расширение режима : CM (complete main)
Параметр Endianness формата : Big
Идентификатор кодека : A_AC3
Продолжительность : 45 м.
Вид битрейта : Постоянный
Битрейт : 384 Кбит/сек
Каналы : 6 каналов
Расположение каналов : Front: L C R, Side: L R, LFE
Частота : 48,0 КГц
Битовая глубина : 16 бит
Метод сжатия : С потерями
Размер потока : 124 Мбайт (7%)
Заголовок : LostFilm 5.1
Язык : Russian
Default : Да
Forced : Нет

Аудио #2
Идентификатор : 3
Формат : AC-3
Формат/Информация : Audio Coding 3
Расширение режима : CM (complete main)
Параметр Endianness формата : Big
Идентификатор кодека : A_AC3
Продолжительность : 45 м.
Вид битрейта : Постоянный
Битрейт : 384 Кбит/сек
Каналы : 6 каналов
Расположение каналов : Front: L C R, Side: L R, LFE
Частота : 48,0 КГц
Битовая глубина : 16 бит
Метод сжатия : С потерями
Размер потока : 124 Мбайт (7%)
Заголовок : NewStudio
Язык : Russian
Default : Нет
Forced : Нет

Аудио #3
Идентификатор : 4
Формат : AC-3
Формат/Информация : Audio Coding 3
Расширение режима : CM (complete main)
Параметр Endianness формата : Big
Идентификатор кодека : A_AC3
Продолжительность : 45 м.
Вид битрейта : Постоянный
Битрейт : 384 Кбит/сек
Каналы : 6 каналов
Расположение каналов : Front: L C R, Side: L R, LFE
Частота : 48,0 КГц
Битовая глубина : 16 бит
Метод сжатия : С потерями
Размер потока : 124 Мбайт (7%)
Заголовок : AlexFilm
Язык : Russian
Default : Нет
Forced : Нет

Аудио #4
Идентификатор : 5
Формат : AC-3
Формат/Информация : Audio Coding 3
Расширение режима : CM (complete main)
Параметр Endianness формата : Big
Идентификатор кодека : A_AC3
Продолжительность : 45 м.
Вид битрейта : Постоянный
Битрейт : 384 Кбит/сек
Каналы : 6 каналов
Расположение каналов : Front: L C R, Side: L R, LFE
Частота : 48,0 КГц
Битовая глубина : 16 бит
Метод сжатия : С потерями
Размер потока : 124 Мбайт (7%)
Язык : English
Default : Нет
Forced : Нет

Текст #1
Идентификатор : 6
Формат : UTF-8
Идентификатор кодека : S_TEXT/UTF8
Идентификатор кодека/Информация : UTF-8 Plain Text
Заголовок : rus
Язык : Russian
Default : Нет
Forced : Нет

Текст #2
Идентификатор : 7
Формат : UTF-8
Идентификатор кодека : S_TEXT/UTF8
Идентификатор кодека/Информация : UTF-8 Plain Text
Заголовок : CC
Язык : English
Default : Нет
Forced : Нет





реклама партнёра


Вернуться к началу
 Профиль  
 
   Похожие торренты   Автор   Торрент   Размер 
В этой теме нет новых непрочитанных сообщений. Викинги / Vikings [03x01-10 из 10] (Киаран Доннелли, Йохан Ренк, Кен Джиротти)[2015, боевик, драма, военный, история, WEB-DLRip | AlexFilm]

Nickolas3435

1021 | 1177

5.21 ГБ

В этой теме нет новых непрочитанных сообщений. Викинги / Vikings [03x01-10 из 10] (Йохан Ренк, Киаран Доннелли, Кен Джиротти) [боевик, драма, военный, история, 2015] WEB-DL 1080p, Mvo [LostFilm]

Dracon

183 | 249

18.37 ГБ

В этой теме нет новых непрочитанных сообщений. Викинги / Vikings [03х01-10 из 10] (Киаран Доннелли, Йохан Ренк, Кен Джиротти)[2015, боевик, драма, военный, история, WEB-DL 720p | AlexFilm]

Nickolas3435

199 | 158

14.73 ГБ

В этой теме нет новых непрочитанных сообщений. Викинги / Vikings (Сезон 3, Серии 1-10 из 10) (Киаран Доннелли, Йохан Ренк, Кен Джиротти) [2015, Историческая драма, приключения, боевик, викинги, WEBDLRip] [DD5.1] [MVO] [LostFilm,AlexFilm,NewStudio,BaibaKo]

Враг Нароода

1 | 2

19.05 ГБ

В этой теме нет новых непрочитанных сообщений. Викинги / Vikings [03х01-10 из 10] (Йохан Ренк, Киаран Доннелли, Кен Джиротти) [боевик, драма, военный, история, 2015] WEB-DL 720p, Mvo [NewStudio]

Dracon

5 | 923

14.61 ГБ

В этой теме нет новых непрочитанных сообщений. Викинги / Vikings [03х01-10 из 10] (Йохан Ренк, Киаран Доннелли, Кен Джиротти) [боевик, драма, военный, история, 2015] WEB-DL 1080p, Mvo [AlexFilm]

Dracon

53 | 49

18.36 ГБ

В этой теме нет новых непрочитанных сообщений. Викинги / Vikings [Season 3 episode 1-9 of 10] (Йохан Ренк, Киаран Доннелли, Кен Джиротти) [боевик, драма, военный, история, 2015] WEB-DLRip, Mvo [Alexfilm]

Dracon

237 | 540

4.69 ГБ


Начать новую тему Ответить на тему  [ 1 сообщение ] 




Для Мосгорсуда, Роскомнадзора и рекламодателей:: mosgorsud-torrent[собачка]yandex.ru