Торрент файл
скачать торрент магнет ссылка Добавлен: 16 мар 2015, 00:18
Размер: 11.11 ГБ
Сидеров: 3
Личеров: 2
Автор

СообщениеДобавлено: 16 мар 2015, 00:18 

В сети
Супермодератор
Аватара пользователя
Дата регистрации:
15 фев 2012, 16:44
Возраст: 27
Спасибо: 5121 / 2089
Сообщения: 17281
Информация о фильме
Название: Правила совместной жизни
Оригинальное название: Rules of Engagement
Год выпуска: 2013
Жанр: Комедия, мелодрама
Режиссер: Тед Уасс, Марк Сендроуски, Леонард Р. Гарнер мл., Том Херц
В ролях: Мегин Прайс, Патрик Варбертон, Оливер Хадсон, Бьянка Кайлич, Дэвид Спейд, Адхир Кальян, Дайан Селлерс, Венди МакЛендон-Кови, Эндрю Агиляр, Сара Рю, Сьюзэн Йигли, Лаура Лэнс, Тэрин Саузерн, Назнин Контрактор, Ричард МакГонагл, Орландо Джонс, Бет Литтлфорд, Грег Бонд, Хэзер Локлир, Джейми Прессли, Алекс Болл, Вейн Лопез, Мэттью Мэхэни, Антонио Льюис Тодд, Кендес Крослак, Шон Эбботт, Ларри Джо Кэмпбелл

О фильме:
Главные герои сериала - обручённая пара Дженнифер и Адам, одинокий убежденный холостяк Рассел, а также давно женатая и вполне сложившаяся семья Джеф и Одри. Они живут в одном доме, и даже более того, на одной лестничной клетке. Общаясь между собой, они делятся впечатлениями, которые остаются от их совместной жизни со своими половинками. На их наглядном примере можно увидеть, что отношения между влюбленными часто походят на безумные гонки с препятствиями.


Официальный сайт

Страна: США
Студия: Game Six Productions, Happy Madison Productions, CBS Paramount Network Television
Продолжительность: 13 x ~ 00:21:30
Перевод: Профессиональный многоголосый (SET Россия), любительский двухголосый (BraveSound)

Файл
Кодек: MPEG-4 AVC
Качество: WEB-DL 1080p
Видео: 1920x1080, ~ 4997 Кбит/с
Звук:
Audio 1 Русская: 48 kHz, MPEG Layer 3, 2 ch, ~128 kbps avg
Audio 2 Английская: AC3, 6 ch, 384 Кбит/с
Субтитры: Английские

Дополнительная информация:
7 Сезон - Любительский двухголосый (BraveSound)

7 Сезон:
01. Лиз движется в (Liz Moves In)
02. Выбранное Имя (Taking Names)
03. Кошки и собаки (Cats & Dogs)
04. Кекс (Cupcake)
05. Фонтан молодости (Fountain of Youth)
06. Детский лепет (Baby Talk)
07. Ролевая игра (Role Play)
08. Питание (Catering)
09. Кулинария (Cooking Class)
10. Неприятные сюрпризы (Unpleasant Surprises)
11. Тимми Завершает (Timmy Quits)
12. Во проблема (A Wee Problem)
13. 100 (100th)
Общее
Уникальный идентификатор : 238970460928807472260136141186899094041 (0xB3C8096211F254EA99BAD2872BFBAA19)
Полное имя : D:DownloadsВременные файлыПравила совместной жизни (Rules of Engagement) WEB-DL 1080p7 Season (BraveSound)Правила совместной жизни. s07.e01. Лиз движется в.mkv
Формат : Matroska
Версия формата : Version 4 / Version 2
Размер файла : 853 Мбайт
Продолжительность : 21 м.
Общий поток : 5621 Кбит/сек
Дата кодирования : UTC 2015-03-11 19:00:51
Программа кодирования : mkvmerge v7.3.0 ('Nouages') 64bit built on Oct 22 2014 18:53:34
Библиотека кодирования : libebml v1.3.0 + libmatroska v1.4.1
DURATION : 00:21:13.728000000
NUMBER_OF_FRAMES : 53072
NUMBER_OF_BYTES : 20379648
_STATISTICS_WRITING_APP : mkvmerge v7.3.0 ('Nouages') 64bit built on Oct 22 2014 18:53:34
_STATISTICS_WRITING_DATE_UTC : 2015-03-11 19:00:51
_STATISTICS_TAGS : BPS DURATION NUMBER_OF_FRAMES NUMBER_OF_BYTES

Видео
Идентификатор : 1
Формат : AVC
Формат/Информация : Advanced Video Codec
Профиль формата : High@L4.0
Параметр CABAC формата : Да
Параметр ReFrames формата : 4 кадра
Идентификатор кодека : V_MPEG4/ISO/AVC
Продолжительность : 21 м.
Битрейт : 4997 Кбит/сек
Ширина : 1920 пикселей
Высота : 1080 пикселей
Соотношение сторон : 16:9
Режим частоты кадров : Постоянный
Частота кадров : 23,976 кадра/сек
Цветовое пространство : YUV
Субдискретизация насыщенности : 4:2:0
Битовая глубина : 8 бит
Тип развёртки : Прогрессивная
Бит/(Пиксели*Кадры) : 0.101
Размер потока : 759 Мбайт (89%)
Язык : English
Default : Да
Forced : Нет
Основные цвета : BT.709
Характеристики трансфера : BT.709
Коэффициенты матрицы : BT.709
colour_range : Limited

Аудио #1
Идентификатор : 2
Формат : MPEG Audio
Версия формата : Version 1
Профиль формата : Layer 3
Режим : Joint stereo
Расширение режима : MS Stereo
Идентификатор кодека : A_MPEG/L3
Идентификатор кодека/Подсказка : MP3
Продолжительность : 21 м.
Вид битрейта : Постоянный
Битрейт : 128 Кбит/сек
Каналы : 2 канала
Частота : 48,0 КГц
Метод сжатия : С потерями
Размер потока : 19,4 Мбайт (2%)
Заголовок : Rus L.D. (BraveSound)
Язык : Russian
Default : Да
Forced : Нет

Аудио #2
Идентификатор : 3
Формат : AC-3
Формат/Информация : Audio Coding 3
Расширение режима : CM (complete main)
Параметр Endianness формата : Big
Идентификатор кодека : A_AC3
Продолжительность : 21 м.
Вид битрейта : Постоянный
Битрейт : 384 Кбит/сек
Каналы : 6 каналов
Расположение каналов : Front: L C R, Side: L R, LFE
Частота : 48,0 КГц
Битовая глубина : 16 бит
Метод сжатия : С потерями
Размер потока : 58,3 Мбайт (7%)
Язык : English
Default : Нет
Forced : Нет

Текст
Идентификатор : 4
Формат : UTF-8
Идентификатор кодека : S_TEXT/UTF8
Идентификатор кодека/Информация : UTF-8 Plain Text
Заголовок : CC
Язык : English
Default : Да
Forced : Нет




Релиз от: WEB-DL (1080p) 7 Сезон Рип и работа со звуком - CergMark
Озвучка: Любительский двухголосый (BraveSound)


_________________



реклама партнёра


Вернуться к началу
 Профиль Отправить личное сообщение  
 
   Похожие торренты   Автор   Торрент   Размер 
В этой теме нет новых непрочитанных сообщений. Правила боя / Rules of Engagement [боевик, драма, военный, 2000] BDRip 1080p, Dub+Sub

salma3

7 | 5

11.29 ГБ

В этой теме нет новых непрочитанных сообщений. Правила секса / The Rules of Attraction [Комедия, мелодрама, драма, триллер, 2002] BDRip 720p, Dub

salma3

48 | 4

3.74 ГБ

В этой теме нет новых непрочитанных сообщений. Правила виноделов / The Cider House Rules [Драма, мелодрама, 1999] BDRip 720p, Dub+Sub

salma3

14 | 3

8.61 ГБ

В этой теме нет новых непрочитанных сообщений. Мамин дом,мамины правила / Mom's House, Mom's Rules (2014) WEB-DLRip[720p]

shans5

4 | 4

1.8 ГБ

В этой теме нет новых непрочитанных сообщений. Правила жизни французского парня / Libre et assoupi [Комедия, 2014] HDRip, mvo [Чистый звук]

Dracon

1298 | 64

1.36 ГБ

В этой теме нет новых непрочитанных сообщений. Правила жизни французского парня / Libre et assoupi [Комедия, 2014] BDRip 720p, mvo [Чистый звук]

Dracon

14 | 7

4.44 ГБ

В этой теме нет новых непрочитанных сообщений. Хоть раз в жизни / Begin Again [Драма, мелодрама, комедия, музыка, 2014] BDRip 1080p, Dub [Лицензия]

Dracon

337 | 21

8.42 ГБ


Начать новую тему Ответить на тему  [ 1 сообщение ] 




Для Мосгорсуда, Роскомнадзора и рекламодателей:: mosgorsud-torrent[собачка]yandex.ru