Торрент файл
скачать торрент магнет ссылка Добавлен: 18 май 2015, 16:13
Размер: 7.7 ГБ
Сидеров: 29
Личеров: 14
Автор

СообщениеДобавлено: 11 мар 2015, 23:37 

Не в сети
Супермодератор
Аватара пользователя
Дата регистрации:
06 июн 2014, 07:51
Спасибо: 599 / 0
Сообщения: 2002
Год выхода: 2014
Жанр: драма, мелодрама, военный, история
Режиссер: Хилаль Сарал
В ролях: Кыванч Татлытуг, Фара Зейнеп Абдулла, Berk Erçer, Сердар Гёкхан, Седа Гувен, Sarp Can Köroglu, Биркан Сокуллу, Ushan Çakir, Сергей Тэсслер

О фильме:
Герои переживут крах правящей царской династии и Октябрьскую революцию. На фоне этих исторических событий, полных трагизма, горьких утрат, жестоких разочарований, и развернется история любви между бывшим офицером Царской армии лейтенантом Куртом Сеитом и шестнадцатилетней девушкой из аристократического рода Шурой.


Страна: Турция
Студия: Ay Yapim, Star TV
Продолжительность: ~ 01:30:00 серия
Перевод: Професиональный (полное дублирование) [Дубляж выполнен студией "СВ-Дубль" по заказу телеканала "Домашний"]

Кодек: XviD / MP3
Качество: WEB-DLRip
Видео: MPEG4, XviD, 720x400 (16:9), 25.000 fps, 1 312 Kbps (0.182 bit/pixel)
Звук: MP3, 44.1 KHz, 2 ch, 128 Kbps, CBR

General
Complete name : /KurtSeyitVeSura.S01/Kurt Seyit ve Sura.s01.e01.avi
Format : AVI
Format/Info : Audio Video Interleave
File size : 904 MiB
Duration : 1h 27mn
Overall bit rate : 1 450 Kbps
Writing application : VirtualDubModRus 1.5.10.2 (build 2542/release)
Writing library : VirtualDubMod build 2542/release
TCOD : 0
TCDO : 52336400000

Video
ID : 0
Format : MPEG-4 Visual
Format profile : Advanced Simple@L5
Format settings, BVOP : 2
Format settings, QPel : No
Format settings, GMC : No warppoints
Format settings, Matrix : Default (H.263)
Muxing mode : Packed bitstream
Codec ID : XVID
Codec ID/Hint : XviD
Duration : 1h 27mn
Bit rate : 1 312 Kbps
Width : 720 pixels
Height : 400 pixels
Display aspect ratio : 16:9
Frame rate : 25.000 fps
Color space : YUV
Chroma subsampling : 4:2:0
Bit depth : 8 bits
Scan type : Progressive
Compression mode : Lossy
Bits/(Pixel*Frame) : 0.182
Stream size : 818 MiB (91%)
Writing library : XviD 73

Audio
ID : 1
Format : MPEG Audio
Format version : Version 1
Format profile : Layer 3
Mode : Joint stereo
Mode extension : MS Stereo
Codec ID : 55
Codec ID/Hint : MP3
Duration : 1h 27mn
Bit rate mode : Constant
Bit rate : 128 Kbps
Channel(s) : 2 channels
Sampling rate : 44.1 KHz
Compression mode : Lossy
Stream size : 79.9 MiB (9%)
Alignment : Split accross interleaves
Interleave, duration : 40 ms (1.00 video frame)
Interleave, preload duration : 500 ms




реклама партнёра


Вернуться к началу
 Профиль Отправить личное сообщение  
 
   Похожие торренты   Автор   Торрент   Размер 
В этой теме нет новых непрочитанных сообщений. Курт Сеит и Александра / Kurt Seyit ve Sura [01-02x01-21] (Хилаль Сарал) [драма, мелодрама, военный, история, 2014] SATRip, Dub

Dracon

47 | 46

28.1 ГБ

В этой теме нет новых непрочитанных сообщений. Курт Сеит и Александра / Kurt Seyit ve Sura [01-02x01-18] (Хилаль Сарал) [драма, мелодрама, военный, история, 2014] SATRip, Dub

Dracon

В этой теме нет новых непрочитанных сообщений. Шесть / Six [01x01-07 из 08] [боевик, драма, военный, история, 2017] WEB-DLRip, Mvo [NewStudio]

salma3

0 | 0

3.42 ГБ

В этой теме нет новых непрочитанных сообщений. Шесть / Six [01x01-03 из 08] (Боевик, драма, военный, история, 2017) WEB-DLRip | КПК | LostFilm

marya111

26 | 20

669.27 МБ

В этой теме нет новых непрочитанных сообщений. Шесть / Six [01x01-02 из 08] (Боевик, драма, военный, история, 2017) WEB-DLRip 1080p | IdeaFilm

marya111

49 | 16

3.24 ГБ

В этой теме нет новых непрочитанных сообщений. Великолепный век / Muhtesem Yüzyil [04x01-36 (104-139)] (Мерт Байкал, Ягиз Алп Акайдын) [2013-2014, Драма, мелодрама, военный, биография, история, реальные события, экранизация, WEB-DLRip]

Nickolas3435

886 | 1313

51.22 ГБ

В этой теме нет новых непрочитанных сообщений. Простая история (Боевик, военный, драма, мелодрама, 2016) WEB-DLRip от MegaPeer

marya111

130 | 16

1.46 ГБ


Начать новую тему Ответить на тему  [ 1 сообщение ] 




Для Мосгорсуда, Роскомнадзора и рекламодателей:: mosgorsud-torrent[собачка]yandex.ru