Торрент файл
скачать торрент магнет ссылка Добавлен: 11 мар 2015, 23:36
Размер: 2.15 ГБ
Сидеров: 142
Личеров: 31
Автор

СообщениеДобавлено: 11 мар 2015, 23:36 

Не в сети
Супермодератор
Аватара пользователя
Дата регистрации:
06 июн 2014, 07:51
Спасибо: 576 / 0
Сообщения: 2002
Информация о фильме
Название: Отец Браун
Оригинальное название: Father Brown
Год выхода: 2015
Жанр: драма, детектив
Режиссер: Йен Барбер, Мэтт Картер, Доминик Киви
В ролях: Марк Вильямс, Хьюго Спир, Kasia Koleczek, Майк Истман, Алекс Прайс, Кейт Осборн, Нэнси Кэролл

О фильме:
В английском священнике есть большая часть тех качеств, которые были присущи Шерлоку Холмсу. Он умел обращать внимание на незаметные детали, в разговоре больше внимания старался уделять мимике собеседника — ведь жесты человека, как теперь считают ученые, могут сказать больше, чем слова. Глубокий анализ и умение мыслить логически делают отца Брауна, внешне скромного и неприметного, суровым обличителем для преступников.


Страна: Великобритания
Студия: BBC One
Продолжительность: ~00:44:00 серия
Перевод: Любительский (двухголосый закадровый) Студия Райдо

Файл
Кодек: XviD / MP3
Качество: HDTVRip
Видео: MPEG4, XviD, 720x400 (16:9), 25.000 fps, 1 325 Kbps (0.184 bit/pixel)
Звук:
Аудио #1: AC-3, 48.0 KHz, 2 ch, 192 Kbps, CBR
Аудио #2: AC-3, 48.0 KHz, 2 ch, 192 Kbps, CBR
Субтитры: Русские, английские (SRT, внешние)

General
Complete name : /father.brown.2013.s03.raidho/father.brown.2013.s03e01.hdtvip.rus.eng.raidho.avi
Format : AVI
Format/Info : Audio Video Interleave
File size : 550 MiB
Duration : 44mn 38s
Overall bit rate : 1 723 Kbps
Writing application : VirtualDubMod 1.5.10.3 | http://www.virtualdub-fr.org || (build 2550/release)
Writing library : VirtualDubMod build 2550/release

Video
ID : 0
Format : MPEG-4 Visual
Format profile : Advanced Simple@L5
Format settings, BVOP : 2
Format settings, QPel : No
Format settings, GMC : No warppoints
Format settings, Matrix : Default (MPEG)
Codec ID : XVID
Codec ID/Hint : XviD
Duration : 44mn 38s
Bit rate : 1 325 Kbps
Width : 720 pixels
Height : 400 pixels
Display aspect ratio : 16:9
Frame rate : 25.000 fps
Color space : YUV
Chroma subsampling : 4:2:0
Bit depth : 8 bits
Scan type : Progressive
Compression mode : Lossy
Bits/(Pixel*Frame) : 0.184
Stream size : 423 MiB (77%)
Writing library : XviD 73

Audio #1
ID : 1
Format : AC-3
Format/Info : Audio Coding 3
Mode extension : CM (complete main)
Format settings, Endianness : Big
Codec ID : 2000
Duration : 44mn 38s
Bit rate mode : Constant
Bit rate : 192 Kbps
Channel(s) : 2 channels
Channel positions : Front: L R
Sampling rate : 48.0 KHz
Bit depth : 16 bits
Compression mode : Lossy
Stream size : 61.3 MiB (11%)
Alignment : Split accross interleaves
Interleave, duration : 40 ms (1.00 video frame)
Interleave, preload duration : 500 ms

Audio #2
ID : 2
Format : AC-3
Format/Info : Audio Coding 3
Mode extension : CM (complete main)
Format settings, Endianness : Big
Codec ID : 2000
Duration : 44mn 38s
Bit rate mode : Constant
Bit rate : 192 Kbps
Channel(s) : 2 channels
Channel positions : Front: L R
Sampling rate : 48.0 KHz
Bit depth : 16 bits
Compression mode : Lossy
Stream size : 61.3 MiB (11%)
Alignment : Split accross interleaves
Interleave, duration : 40 ms (1.00 video frame)
Interleave, preload duration : 500 ms




реклама партнёра


Вернуться к началу
 Профиль Отправить личное сообщение  
 
   Похожие торренты   Автор   Торрент   Размер 
В этой теме нет новых непрочитанных сообщений. Отец Браун / Father Brown [03x01-15] (Йен Барбер, Мэтт Картер, Доминик Киви) [2015, драма, детектив, HDTVRip | ТВЦ]

Dracon

48 | 34

10.84 ГБ

В этой теме нет новых непрочитанных сообщений. Отец Браун / Father Brown [s01-03] (Айэн Барбер, Доминик Киви, Мэтт Картер) [Детектив, драма, 2013-2015] HDTVRip [ТВЦ]

Dracon

44 | 84

26.6 ГБ

В этой теме нет новых непрочитанных сообщений. Банши / Banshee [03x01-10 из 10] (Грег Яйтанс, Оле Кристиан Мадсен, С.Дж. Кларксон) [2015, боевик, триллер, драма, криминал, детектив, HDTVRip | Amedia]

Nickolas3435

275 | 129

6.03 ГБ

В этой теме нет новых непрочитанных сообщений. Банши / Banshee [03x01-10 из 10] (Грег Яйтанс, Оле Кристиан Мадсен, С.Дж. Кларксон) [2015, боевик, триллер, драма, криминал, детектив, HDTVRip 720p | Amedia]

Nickolas3435

176 | 189

14.41 ГБ

В этой теме нет новых непрочитанных сообщений. Кровный отец / Blood Father [боевик, триллер, 2016] WEB-DLRip, Mvo

salma3

7108 | 671

1.37 ГБ

В этой теме нет новых непрочитанных сообщений. Кровный отец / Blood Father [Боевик, триллер, 2016] WEB-DL 720p, Mvo

salma3

1770 | 219

2.68 ГБ

В этой теме нет новых непрочитанных сообщений. Кровный отец / Blood Father [Боевик, триллер, 2016] HDRip-AVC, mvo

marya111

61 | 0

749.23 МБ


Начать новую тему Ответить на тему  [ 1 сообщение ] 




Для Мосгорсуда, Роскомнадзора и рекламодателей:: mosgorsud-torrent[собачка]yandex.ru