Торрент файл
скачать торрент магнет ссылка Добавлен: 06 мар 2015, 17:30
Размер: 14.45 ГБ
Сидеров: 924
Личеров: 200
Автор

СообщениеДобавлено: 03 мар 2015, 21:08 

Не в сети
Зам. Админа
Аватара пользователя
Дата регистрации:
02 дек 2010, 12:39
Спасибо: 12460 / 214
Сообщения: 27968
Год выхода: 2015
Жанр: Драма
Режиссер: Джеймс Фоули, Дэвид Финчер, Карл Франклин
В ролях: Кевин Спейси, Робин Райт, Кейт Мара, Кори Столл, Майкл Келли, Сакина Джэффри, Ларри Пайн, Джейн Эткинсон, Кевин Килнер, Жаклин Джонс, Рюэл Пендлтон, Гилберт Сото, Кристен Коннолли, Сандрин Холт, Махершалалхашбаз Али, Майкл Гилл, Рэйчел Броснахэн, Бен Дэниелс, Тони Сайпресс, Констанс Зиммер

О фильме:
Безжалостный конгрессмен, Фрэнсис Андервуд, и его амбициозная жена Клэр, не остановятся ни перед чем, чтобы завоевать все. Эта жестокая политическая драма пропитанная жадностью, сексом, любовью и коррупцией.

Качество: WEBRip [720p]
Видео: MPEG-4 AVC, 2000 kbps, 1280x640, 23.976 fps
Аудио #1 : AC3, 48.0 KHz, 2 ch, 256 kbps (Русский)
Аудио #2 : AC3, 48.0 KHz, 6 ch, 640 kbps (Английский)
Субтитры: Русские, английские
Продолжительность: 00:50:00
Перевод: Профессиональный (многоголосный)

Формат : Matroska  Версия формата : Version 2
Версия формата : Version 2  Размер файла : 988 Мбайт
Размер файла : 988 Мбайт  Продолжительность : 58 м.
Продолжительность : 58 м.  Общий поток : 2353 Кбит/сек
Общий поток : 2353 Кбит/сек  Дата кодирования : UTC 2015-03-03 13:24:26
Дата кодирования : UTC 2015-03-03 13:24:26  Программа кодирования : mkvmerge v7.6.0 ('Garden of Dreams') 64bit built on Feb 8 2015 13:04:34
Программа кодирования : mkvmerge v7.6.0 ('Garden of Dreams') 64bit built on Feb 8 2015 13:04:34  Библиотека кодирования : libebml v1.3.1 + libmatroska v1.4.2
Библиотека кодирования : libebml v1.3.1 + libmatroska v1.4.2  DURATION : 00:58:37.472000000
DURATION : 00:58:37.472000000  NUMBER_OF_FRAMES : 109921
NUMBER_OF_FRAMES : 109921  NUMBER_OF_BYTES : 112559104
NUMBER_OF_BYTES : 112559104  _STATISTICS_WRITING_APP : mkvmerge v7.6.0 ('Garden of Dreams') 64bit built on Feb 8 2015 13:04:34
_STATISTICS_WRITING_APP : mkvmerge v7.6.0 ('Garden of Dreams') 64bit built on Feb 8 2015 13:04:34  _STATISTICS_WRITING_DATE_UTC : 2015-03-03 13:24:26
_STATISTICS_WRITING_DATE_UTC : 2015-03-03 13:24:26  _STATISTICS_TAGS : BPS DURATION NUMBER_OF_FRAMES NUMBER_OF_BYTES
_STATISTICS_TAGS : BPS DURATION NUMBER_OF_FRAMES NUMBER_OF_BYTES  
Видео
Идентификатор : 1
Идентификатор : 1  Формат : AVC
Формат : AVC  Формат/Информация : Advanced Video Codec
Формат/Информация : Advanced Video Codec  Профиль формата : High@L4.1
Профиль формата : High@L4.1  Параметр CABAC формата : Да
Параметр CABAC формата : Да  Параметр ReFrames формата : 5 кадров
Параметр ReFrames формата : 5 кадров  Идентификатор кодека : V_MPEG4/ISO/AVC
Идентификатор кодека : V_MPEG4/ISO/AVC  Продолжительность : 58 м.
Продолжительность : 58 м.  Битрейт : 1410 Кбит/сек
Битрейт : 1410 Кбит/сек  Ширина : 1280 пикселей
Ширина : 1280 пикселей  Высота : 640 пикселей
Высота : 640 пикселей  Соотношение сторон : 2,000
Соотношение сторон : 2,000  Режим частоты кадров : Постоянный
Режим частоты кадров : Постоянный  Частота кадров : 23,976 кадра/сек
Частота кадров : 23,976 кадра/сек  Цветовое пространство : YUV
Цветовое пространство : YUV  Субдискретизация насыщенности : 4:2:0
Субдискретизация насыщенности : 4:2:0  Битовая глубина : 8 бит
Битовая глубина : 8 бит  Тип развёртки : Прогрессивная
Тип развёртки : Прогрессивная  Бит/(Пиксели*Кадры) : 0.072
Бит/(Пиксели*Кадры) : 0.072  Размер потока : 592 Мбайт (60%)
Размер потока : 592 Мбайт (60%)  Библиотека кодирования : x264 core 144 r2525 40bb568
Библиотека кодирования : x264 core 144 r2525 40bb568  Настройки программы : cabac=1 / ref=5 / deblock=1:0:0 / analyse=0x3:0x113 / me=umh / subme=8 / psy=1 / psy_rd=1.00:0.00 / mixed_ref=1 / me_range=16 / chroma_me=1 / trellis=1 / 8x8dct=1 / cqm=0 / deadzone=21,11 / fast_pskip=1 / chroma_qp_offset=-2 / threads=12 / lookahead_threads=2 / sliced_threads=0 / nr=0 / decimate=1 / interlaced=0 / bluray_compat=0 / constrained_intra=0 / bframes=3 / b_pyramid=2 / b_adapt=2 / b_bias=0 / direct=3 / weightb=1 / open_gop=0 / weightp=2 / keyint=250 / keyint_min=23 / scenecut=40 / intra_refresh=0 / rc_lookahead=50 / rc=crf / mbtree=1 / crf=18.0 / qcomp=0.60 / qpmin=0 / qpmax=69 / qpstep=4 / ip_ratio=1.40 / aq=1:1.00
Настройки программы : cabac=1 / ref=5 / deblock=1:0:0 / analyse=0x3:0x113 / me=umh / subme=8 / psy=1 / psy_rd=1.00:0.00 / mixed_ref=1 / me_range=16 / chroma_me=1 / trellis=1 / 8x8dct=1 / cqm=0 / deadzone=21,11 / fast_pskip=1 / chroma_qp_offset=-2 / threads=12 / lookahead_threads=2 / sliced_threads=0 / nr=0 / decimate=1 / interlaced=0 / bluray_compat=0 / constrained_intra=0 / bframes=3 / b_pyramid=2 / b_adapt=2 / b_bias=0 / direct=3 / weightb=1 / open_gop=0 / weightp=2 / keyint=250 / keyint_min=23 / scenecut=40 / intra_refresh=0 / rc_lookahead=50 / rc=crf / mbtree=1 / crf=18.0 / qcomp=0.60 / qpmin=0 / qpmax=69 / qpstep=4 / ip_ratio=1.40 / aq=1:1.00  Язык : English
Язык : English  Default : Да
Default : Да  Forced : Нет
Forced : Нет  Коэффициенты матрицы : BT.709
Коэффициенты матрицы : BT.709  colour_range : Limited
colour_range : Limited  DURATION : 00:58:41.063000000
DURATION : 00:58:41.063000000  NUMBER_OF_FRAMES : 84421
NUMBER_OF_FRAMES : 84421  NUMBER_OF_BYTES : 640520769
NUMBER_OF_BYTES : 640520769  _STATISTICS_WRITING_APP : mkvmerge v7.6.0 ('Garden of Dreams') 64bit built on Feb 8 2015 13:04:34
_STATISTICS_WRITING_APP : mkvmerge v7.6.0 ('Garden of Dreams') 64bit built on Feb 8 2015 13:04:34  _STATISTICS_WRITING_DATE_UTC : 2015-03-03 13:24:26
_STATISTICS_WRITING_DATE_UTC : 2015-03-03 13:24:26  _STATISTICS_TAGS : BPS DURATION NUMBER_OF_FRAMES NUMBER_OF_BYTES
_STATISTICS_TAGS : BPS DURATION NUMBER_OF_FRAMES NUMBER_OF_BYTES  
Аудио #1
Идентификатор : 2
Идентификатор : 2  Формат : AC-3
Формат : AC-3  Формат/Информация : Audio Coding 3
Формат/Информация : Audio Coding 3  Расширение режима : CM (complete main)
Расширение режима : CM (complete main)  Параметр Endianness формата : Big
Параметр Endianness формата : Big  Идентификатор кодека : A_AC3
Идентификатор кодека : A_AC3  Продолжительность : 58 м.
Продолжительность : 58 м.  Вид битрейта : Постоянный
Вид битрейта : Постоянный  Битрейт : 256 Кбит/сек
Битрейт : 256 Кбит/сек  Каналы : 2 канала
Каналы : 2 канала  Расположение каналов : Front: L R
Расположение каналов : Front: L R  Частота : 48,0 КГц
Частота : 48,0 КГц  Битовая глубина : 16 бит
Битовая глубина : 16 бит  Метод сжатия : С потерями
Метод сжатия : С потерями  Размер потока : 107 Мбайт (11%)
Размер потока : 107 Мбайт (11%)  Язык : Russian
Язык : Russian  Default : Нет
Default : Нет  Forced : Нет
Forced : Нет  
Аудио #2
Идентификатор : 3
Идентификатор : 3  Формат : AC-3
Формат : AC-3  Формат/Информация : Audio Coding 3
Формат/Информация : Audio Coding 3  Расширение режима : CM (complete main)
Расширение режима : CM (complete main)  Параметр Endianness формата : Big
Параметр Endianness формата : Big  Идентификатор кодека : A_AC3
Идентификатор кодека : A_AC3  Продолжительность : 58 м.
Продолжительность : 58 м.  Вид битрейта : Постоянный
Вид битрейта : Постоянный  Битрейт : 640 Кбит/сек
Битрейт : 640 Кбит/сек  Каналы : 6 каналов
Каналы : 6 каналов  Расположение каналов : Front: L C R, Side: L R, LFE
Расположение каналов : Front: L C R, Side: L R, LFE  Частота : 48,0 КГц
Частота : 48,0 КГц  Битовая глубина : 16 бит
Битовая глубина : 16 бит  Метод сжатия : С потерями
Метод сжатия : С потерями  Размер потока : 269 Мбайт (27%)
Размер потока : 269 Мбайт (27%)  Язык : English
Язык : English  Default : Нет
Default : Нет  Forced : Нет
Forced : Нет  
Текст #1
Идентификатор : 4
Идентификатор : 4  Формат : UTF-8
Формат : UTF-8  Идентификатор кодека : S_TEXT/UTF8
Идентификатор кодека : S_TEXT/UTF8  Идентификатор кодека/Информация : UTF-8 Plain Text
Идентификатор кодека/Информация : UTF-8 Plain Text  Язык : Russian
Язык : Russian  Default : Нет
Default : Нет  Forced : Нет
Forced : Нет  
Текст #2
Идентификатор : 5
Идентификатор : 5  Формат : UTF-8
Формат : UTF-8  Идентификатор кодека : S_TEXT/UTF8
Идентификатор кодека : S_TEXT/UTF8  Идентификатор кодека/Информация : UTF-8 Plain Text
Идентификатор кодека/Информация : UTF-8 Plain Text  Язык : English
Язык : English  Default : Нет
Default : Нет  Forced : Нет
Forced : Нет  









реклама партнёра


Вернуться к началу
 Профиль  
 
   Похожие торренты   Автор   Торрент   Размер 
В этой теме нет новых непрочитанных сообщений. Карточный Домик / House of Cards [Season 3, episode 1-13] (Джеймс Фоули, Дэвид Финчер, Карл Франклин) [драма, 2015] WEBRip, Mvo+Sub [Первый канал]

Dracon

913 | 282

7.34 ГБ

В этой теме нет новых непрочитанных сообщений. Карточный домик / House of Cards [03x01-13 из 13] (Джеймс Фоули, Дэвид Финчер, Карл Франклин) [драма, 2015] WEBRip 1080p, Mvo+Sub [Первый канал]

Dracon

365 | 124

33.04 ГБ

В этой теме нет новых непрочитанных сообщений. Карточный Домик / House of Cards [03х01-06 из 13] (Джеймс Фоули, Дэвид Финчер, Карл Франклин) [2015, драма, WEBRip 720p | ColdFilm]

Nickolas3435

32 | 10

5.26 ГБ

В этой теме нет новых непрочитанных сообщений. Карточный Домик / House of Cards [03х01-06 из 13] (Джеймс Фоули, Дэвид Финчер, Карл Франклин) [2015, драма, WEBRip | ColdFilm]

Nickolas3435

18 | 6

2.11 ГБ

В этой теме нет новых непрочитанных сообщений. Карточный Домик / House of Cards [S02] [драма, 2014] WEBRip 720p, Mvo [Первый канал]

Dracon

1144 | 392

14.18 ГБ

В этой теме нет новых непрочитанных сообщений. Карточный домик / House of Cards [экшн, драма, 2013] WEB-DLRip, Mvo

salma3

271 | 5

1.46 ГБ

В этой теме нет новых непрочитанных сообщений. Любовники / The Affair [02x01-12 из 12] (Джеффри Рейнер, Райан Флек, Карл Франклин) [2015, драма, HDTV 720p | HamsterStudio]

Nickolas3435

61 | 81

14.61 ГБ


Начать новую тему Ответить на тему  [ 1 сообщение ] 




Для Мосгорсуда, Роскомнадзора и рекламодателей:: mosgorsud-torrent[собачка]yandex.ru