Торрент файл
скачать торрент магнет ссылка Добавлен: 23 фев 2015, 21:07
Размер: 16.7 ГБ
Сидеров: 2
Личеров: 5
Автор

СообщениеДобавлено: 23 фев 2015, 21:07 

Не в сети
Зам. Админа
Аватара пользователя
Дата регистрации:
02 дек 2010, 12:39
Спасибо: 12623 / 214
Сообщения: 28012
Год выхода: 2013
Жанр: мелодрама, военный, история
Режиссер: Александр Франскевич-Лайе
В ролях: Алексей Гуськов, Евгения Брик, Наталия Быстрова, Анна Рыцарева, Ольга Шувалова, Вероника Пляшкевич, Иван Мацкевич, Игорь Денисов

О фильме:
Для выполнения особо важного задания фронтовик-разведчик капитан Михасев должен получить под свое командование спецразведгруппу из четырех бойцов. Только эти бойцы оказываются… юными девушками. Вчерашним школьницам предстоит проникнуть на узел связи вражеской армии и парализовать его работу, обеспечив успех наступательной операции советских войск.



Качество: HDTV [1080i]
Видео: MPEG-TS (H264) 1920x1080, ~12,7 Мбит/сек, 25.000fps 0.246 bit/pixel
Аудио: AC3, 6 каналов, 48,0 КГц, 384 kbps
Продолжительность: 4 x ~00:45:00
Перевод: Не требуется
E:с торрентовНе покидай меня HDTV 1080iНе покидай меня 01_серия_HDTV_1080i.ts
  General #1
    ID : 1 (0x1)
    Complete name : E:с торрентовНе покидай меня HDTV 1080iНе покидай меня 01_серия_HDTV_1080i.ts
    Format : MPEG-TS
    File size : 4.35 GiB
    Duration : 45mn 10s
    Overall bit rate mode : Variable
    Overall bit rate : 13.8 Mbps
  Video #5481
    ID : 5481 (0x1569)
    Menu ID : 1 (0x1)
    Format : AVC
    Format/Info : Advanced Video Codec
    Format profile : High@L4.0
    Format settings, CABAC : Yes
    Format settings, ReFrames : 3 frames
    Codec ID : 27
    Duration : 45mn 10s
    Bit rate : 12.7 Mbps
    Width : 1 920 pixels
    Height : 1 080 pixels
    Display aspect ratio : 16:9
    Frame rate : 25.000 fps
    Standard : Component
    Color space : YUV
    Chroma subsampling : 4:2:0
    Bit depth : 8 bits
    Scan type : Interlaced
    Scan order : Top Field First
    Bits/(Pixel*Frame) : 0.246
    Stream size : 4.02 GiB (92%)
    Color primaries : BT.709
    Transfer characteristics : BT.709
    Matrix coefficients : BT.709
  Audio #5485
    ID : 5485 (0x156D)
    Menu ID : 1 (0x1)
    Format : AC-3
    Format/Info : Audio Coding 3
    Mode extension : CM (complete main)
    Format settings, Endianness : Big
    Codec ID : 6
    Duration : 45mn 10s
    Bit rate mode : Constant
    Bit rate : 384 Kbps
    Channel(s) : 6 channels
    Channel positions : Front: L C R, Side: L R, LFE
    Sampling rate : 48.0 KHz
    Bit depth : 16 bits
    Compression mode : Lossy
    Stream size : 124 MiB (3%)
    Language : Russian










реклама партнёра


Вернуться к началу
 Профиль  
 
   Похожие торренты   Автор   Торрент   Размер 
В этой теме нет новых непрочитанных сообщений. Черные кошки [01-12 из 12] [Детектив, драма, военный, история, 2013] HDTV 1080i

salma3

27 | 30

32.6 ГБ

В этой теме нет новых непрочитанных сообщений. Простая история ( Боевик, военный, драма, мелодрама, 2016) HDTV 1080i от MediaClub

marya111

118 | 20

4.83 ГБ

В этой теме нет новых непрочитанных сообщений. Белая ночь [01-04 из 04] (Александр Якимчук) [Военный, 2014] HDTV 1080i

Dracon

269 | 27

13.18 ГБ

В этой теме нет новых непрочитанных сообщений. Тарас Бульба / Taras Bulba [драма, приключения, военный, история, 1962] HDTV 1080i, Mvo

salma3

84 | 24

7.27 ГБ

В этой теме нет новых непрочитанных сообщений. Чужое гнездо [01-60 из 60] (Елена Цыплакова, Денис Карро, Александр Ламакин, Роман Нестеренко, Александр Строев) [Мелодрама, семейная сага, драма, 2015] HDTV 1080i

Dracon

15 | 55

197.25 ГБ

В этой теме нет новых непрочитанных сообщений. Привет от Катюши [01-04 из 04] [Драма, военный, 2013] HDTV 1080i

salma3

62 | 40

13.18 ГБ

В этой теме нет новых непрочитанных сообщений. Екатерина [01-09 из 09] [Драма, мелодрама, история, 2014] HDTV 1080i

Dracon

312 | 95

25.19 ГБ


Начать новую тему Ответить на тему  [ 1 сообщение ] 




Для Мосгорсуда, Роскомнадзора и рекламодателей:: mosgorsud-torrent[собачка]yandex.ru