Торрент файл
скачать торрент магнет ссылка Добавлен: 22 фев 2015, 10:25
Размер: 8.26 ГБ
Сидеров: 7
Личеров: 8
Автор

СообщениеДобавлено: 22 фев 2015, 10:25 

Не в сети
Супермодератор
Аватара пользователя
Дата регистрации:
06 июн 2014, 07:51
Спасибо: 576 / 0
Сообщения: 2002
Информация о фильме
Название: Девственница Джейн
Оригинальное название: Jane the Virgin
Год выхода: 2014
Жанр: Драма
Режиссер: Дебби Аллен, Ута Бризвитц, Эдвард Орнелас
В ролях: Брайан ДаРе, Алано Миллер, Андреа Наведо, Рене Вайссер, Джастин Бальдони, Присцилла Барнс, Кармен Каррера, Бретт Дир

О фильме: Джейн выросла под влиянием строгой латиноамериканской бабушки, которая с ранних лет учила внучку скромности и воздержанию. Даже став красивой молодой женщиной, она оставалась целомудренной и пресекала все неприличные поползновения своего жениха. Но обычный поход к гинекологу изменил всю жизнь Джейн. Она стала жертвой случайного искусственного оплодотворения! Мир перевернулся с ног на голову, и теперь ей предстоит принять сложное решение, разобраться с шокированной родней, познакомиться с биологическим отцом малыша и сделать еще много такого, о чем две недели назад она не могла и помыслить.



Выпущено: США, Poppy Productions, RCTV, Electus
Продолжительность: 10 x ~ 00:43:00
Перевод: Профессиональный многоголосый закадровый

Файл
Качество: WEB-DLRip (AVC)
Видео: MPEG-4 AVC, ~ 1600 Кбит/с, 1024x576
Аудио: Русский, английский (AC3, 6 ch, 384 Кбит/с)

General
Unique ID : 219855391068181108095273854167228974222 (0xA5669BAD0D5F7F9A83EE7F1D448D848E)
Complete name : /Дevstvennitsa.dzheyn.x264.WEB-DLRip.(AVC).Interhit/001.mkv
Format : Matroska
Format version : Version 4 / Version 2
File size : 650 MiB
Duration : 38mn 40s
Overall bit rate : 2 351 Kbps
Encoded date : UTC 2014-10-27 13:40:17
Writing application : mkvmerge v6.1.0 ('Old Devil') built on Mar 4 2013 09:10:42
Writing library : libebml v1.3.0 + libmatroska v1.4.0

Video
ID : 1
Format : AVC
Format/Info : Advanced Video Codec
Format profile : High@L4.1
Format settings, CABAC : Yes
Format settings, ReFrames : 6 frames
Codec ID : V_MPEG4/ISO/AVC
Duration : 38mn 40s
Bit rate : 1 581 Kbps
Width : 1 024 pixels
Height : 576 pixels
Display aspect ratio : 16:9
Frame rate mode : Constant
Frame rate : 25.000 fps
Color space : YUV
Chroma subsampling : 4:2:0
Bit depth : 8 bits
Scan type : Progressive
Bits/(Pixel*Frame) : 0.107
Stream size : 425 MiB (65%)
Writing library : x264 core 142 r2431 ac76440
Encoding settings : cabac=1 / ref=6 / deblock=1:-3:-3 / analyse=0x3:0x113 / me=umh / subme=10 / psy=1 / psy_rd=0.00:10.00 / mixed_ref=1 / me_range=32 / chroma_me=1 / trellis=2 / 8x8dct=1 / cqm=0 / deadzone=21,11 / fast_pskip=0 / chroma_qp_offset=-2 / threads=6 / lookahead_threads=1 / sliced_threads=0 / nr=0 / decimate=1 / interlaced=0 / bluray_compat=0 / constrained_intra=0 / bframes=6 / b_pyramid=2 / b_adapt=1 / b_bias=0 / direct=1 / weightb=1 / open_gop=0 / weightp=2 / keyint=250 / keyint_min=25 / scenecut=40 / intra_refresh=0 / rc_lookahead=40 / rc=2pass / mbtree=1 / bitrate=1581 / ratetol=1.0 / qcomp=0.60 / qpmin=0 / qpmax=69 / qpstep=4 / cplxblur=20.0 / qblur=0.5 / vbv_maxrate=62500 / vbv_bufsize=78125 / nal_hrd=none / filler=0 / ip_ratio=1.40 / aq=1:1.00
Default : Yes
Forced : No

Audio #1
ID : 2
Format : AC-3
Format/Info : Audio Coding 3
Mode extension : CM (complete main)
Format settings, Endianness : Big
Codec ID : A_AC3
Duration : 38mn 40s
Bit rate mode : Constant
Bit rate : 384 Kbps
Channel(s) : 6 channels
Channel positions : Front: L C R, Side: L R, LFE
Sampling rate : 48.0 KHz
Bit depth : 16 bits
Compression mode : Lossy
Stream size : 106 MiB (16%)
Language : Russian
Default : No
Forced : Yes

Audio #2
ID : 3
Format : AC-3
Format/Info : Audio Coding 3
Mode extension : CM (complete main)
Format settings, Endianness : Big
Codec ID : A_AC3
Duration : 38mn 40s
Bit rate mode : Constant
Bit rate : 384 Kbps
Channel(s) : 6 channels
Channel positions : Front: L C R, Side: L R, LFE
Sampling rate : 48.0 KHz
Bit depth : 16 bits
Compression mode : Lossy
Stream size : 106 MiB (16%)
Language : English
Default : Yes
Forced : Yes




реклама партнёра


Вернуться к началу
 Профиль Отправить личное сообщение  
 
   Похожие торренты   Автор   Торрент   Размер 
В этой теме нет новых непрочитанных сообщений. Солдат Джейн / G.I. Jane [боевик, драма, военный, 1997] BDRip 720p, Mvo+Avo+Sub

salma3

52 | 12

5.75 ГБ

В этой теме нет новых непрочитанных сообщений. Джейн берет ружье / Jane Got a Gun [боевик, драма, вестерн, 2016] DVD5, Dub

salma3

16 | 2

4.24 ГБ

В этой теме нет новых непрочитанных сообщений. Джейн берет ружье / Jane Got a Gun [боевик, драма, вестерн, 2015] WEBRip, Dvo

salma3

596 | 11

1.37 ГБ

В этой теме нет новых непрочитанных сообщений. Джейн берет ружье / Jane Got a Gun [боевик, драма, вестерн, 2015] WEBRip-AVC, Dvo

salma3

159 | 5

2.84 ГБ

В этой теме нет новых непрочитанных сообщений. За пределами /Род человеческий/Выжившая / Extant (Пэрис Барклай, Мэтт Эрл Бисли, Аллен Коултер) (сезон 1, серия 1-4 из 13) [2014, Фантастика, триллер, драма, WEBDLRip-AVC 1080р] [MVO] [LostFilm]

Baranov 55

1 | 2

8.84 ГБ

В этой теме нет новых непрочитанных сообщений. За пределами /Род человеческий/Выжившая / Extant (Пэрис Барклай, Мэтт Эрл Бисли, Аллен Коултер) (Сезон 1, Серии 1-13 из 13) [2014, Фантастика, триллер, драма, WEBDLRip-AVC 1080р] [MVO] [ LostFilm]

Враг Нароода

38 | 41

29.04 ГБ

В этой теме нет новых непрочитанных сообщений. Леди Джейн / Lady Jane [драма, мелодрама, биография, история, 1985] DVDRip, Dub

salma3

63 | 4

1.46 ГБ


Начать новую тему Ответить на тему  [ 1 сообщение ] 




Для Мосгорсуда, Роскомнадзора и рекламодателей:: mosgorsud-torrent[собачка]yandex.ru