Торрент файл
скачать торрент магнет ссылка Добавлен: 28 фев 2015, 21:58
Размер: 18.26 ГБ
Сидеров: 6
Личеров: 3
Статус: (salma3)
Автор

СообщениеДобавлено: 21 фев 2015, 14:11 

Не в сети
Супермодератор
Аватара пользователя
Дата регистрации:
15 фев 2012, 16:44
Возраст: 27
Спасибо: 5130 / 2089
Сообщения: 17372
Бриллиантовая Роза / Rosa Diamante /

Год выпуска: 2012
Жанр: мелодрама
Режиссёр: Мигель Варони, Víctor Hugo Martínez Saladierna

В ролях: Карла Эрнандес, Маурисио Очманн, Лупита Феррер, Патрицио Кастилло, Клаудия Рамирес, Бегонья Нарваес, София Стаматиадес, Луис Ксавьер, Мануэль Бальби, Лучана Силвейра, Нестор Родульфо и другие.

Описание: Роза — красивая молодая девушка, которая по иронии судьбы воспитывалась в престижной школе-интернате. Ее жизнь неожиданно изменилась в связи с двумя событиями, первое, когда она встречает Хосе Игнасио Альтамирано, привлекательного молодого человека, который станет ее большой запретной любовью, а второе, автомобильная авария когда она будет ехать со своей лучшей подругой. Это определит начало нового этапа в ее жизни — девушка будет вынуждена сдержать клятву, Хотя это означает не только борьбу против тех, кто желает ей зла, но и против чистого и искреннего чувства.

Страна: США, Мексика
Продолжительность: 45 / серия
Перевод: профессиональный [многоголосый, закадровый]

Файл
Качество: SATRip
Формат: AVI
Видео кодек: XviD
Аудио кодек: MP3
Видео: 720х400,(16:9) 25,000 fps, 1650 kbps,0.229 bit/pixel
Аудио: 48 kHz, MPEG Layer 3, 2 ch, ~128 kbps
Доп. информация: Благодарность за запись Sleon2008

Сэмпл: http://sendfile.su/1055638

Полное имя : C:\Users\Храм\Desktop\Раздачи\Бриллиантовая роза 1-30\RD-001.avi
Формат : AVI
Формат/Информация : Audio Video Interleave
Размер файла : 673 Мбайт
Продолжительность : 52 м.
Общий поток : 1788 Кбит/сек
Программа кодирования : VirtualDubMod 1.5.10.3 | http://www.virtualdub-fr.org || (build 2550/release)
Библиотека кодирования : VirtualDubMod build 2550/release

Видео
Идентификатор : 0
Формат : MPEG-4 Visual
Профиль формата : Advanced Simple@L5
Параметр BVOP формата : 1
Параметр QPel формата : Нет
Параметр GMC формата : Без точки перехода
Параметр матрицы формата : Выборочная
Идентификатор кодека : XVID
Идентификатор кодека/Подсказка : XviD
Продолжительность : 52 м.
Битрейт : 1650 Кбит/сек
Ширина : 720 пикселей
Высота : 400 пикселей
Соотношение сторон : 16:9
Частота кадров : 25,000 кадров/сек
Цветовое пространство : YUV
Субдискретизация насыщенности : 4:2:0
Битовая глубина : 8 бит
Тип развёртки : Прогрессивная
Метод сжатия : С потерями
Бит/(Пиксели*Кадры) : 0.229
Размер потока : 621 Мбайт (92%)
Библиотека кодирования : XviD 65

Аудио
Идентификатор : 1
Формат : MPEG Audio
Версия формата : Version 1
Профиль формата : Layer 3
Идентификатор кодека : 55
Идентификатор кодека/Подсказка : MP3
Продолжительность : 52 м.
Вид битрейта : Постоянный
Битрейт : 128 Кбит/сек
Каналы : 2 канала
Частота : 48,0 КГц
Метод сжатия : С потерями
Размер потока : 48,2 Мбайт (7%)
Выравнивание : Соединение по промежуткам
Продолжительность промежутка : 40 мс. (1,00 видеокадр)
Время предзагрузки промежутка : 504 мс.
Библиотека кодирования : L3.99r
Настройки программы : -m s -V 4 -q 2 -lowpass 17 -b 128


_________________



реклама партнёра


Вернуться к началу
 Профиль Отправить личное сообщение  
 
   Похожие торренты   Автор   Торрент   Размер 
В этой теме нет новых непрочитанных сообщений. Бриллиантовая Роза / Rosa Diamante / Серии: 31-60 из 125 [мелодрама, 2012] SATRip, Mvo

salma3

2 | 2

15.8 ГБ

В этой теме нет новых непрочитанных сообщений. Бриллиантовая Роза / Rosa Diamante / Серии: 61-90 из 125 [мелодрама, 2012] SATRip, Mvo

salma3

8 | 5

15.93 ГБ

В этой теме нет новых непрочитанных сообщений. Бриллиантовая Роза / Rosa Diamante / Серии: 1-30 из 125 [мелодрама, 2012] SATRip, Mvo

salma3

2 | 2

16.33 ГБ

В этой теме нет новых непрочитанных сообщений. Бриллиантовая роза / Rosa Diamante / 1 сезон 125 серий из 125 [мелодрама, 2012] SATRip, Mvo [Много ТВ]

salma3

5 | 20

66.33 ГБ

В этой теме нет новых непрочитанных сообщений. Дикая Роза / Rosa Salvaje (1-99 серии из 99) [мелодрама, комедия, 1987-1988] SATRip, Dub

salma3

2 | 3

53.73 ГБ

В этой теме нет новых непрочитанных сообщений. Роза Хутор. Рождество (Россия) [Концерт, 2015] SATRip

Dracon

139 | 7

1.72 ГБ

В этой теме нет новых непрочитанных сообщений. Беспутная Роза / Rambling Rose (Марта Кулидж / Martha Coolidge) [1991г., драма, мелодрама, DVDRip-AVC] MVO

Alfredovich

43 | 3

1.43 ГБ


СообщениеДобавлено: 21 фев 2015, 14:11 

Не в сети
Супермодератор
Аватара пользователя
Дата регистрации:
15 фев 2012, 16:44
Возраст: 27
Спасибо: 5130 / 2089
Сообщения: 17372
salma3 писал(а):
Re: Бриллиантовая Роза / Rosa Diamante / Серии: 91-112 из 125 [мелодрама, 2012] SATRip, Mvo

_________________


Вернуться к началу
 Профиль Отправить личное сообщение  
 

СообщениеДобавлено: 26 фев 2015, 14:08 

Не в сети
Супермодератор
Аватара пользователя
Дата регистрации:
15 фев 2012, 16:44
Возраст: 27
Спасибо: 5130 / 2089
Сообщения: 17372
salma3 писал(а):
Re: Бриллиантовая Роза / Rosa Diamante / Серии: 91-118 из 125 [мелодрама, 2012] SATRip, Mvo

_________________


Вернуться к началу
 Профиль Отправить личное сообщение  
 

СообщениеДобавлено: 28 фев 2015, 21:58 

Не в сети
Супермодератор
Аватара пользователя
Дата регистрации:
15 фев 2012, 16:44
Возраст: 27
Спасибо: 5130 / 2089
Сообщения: 17372
salma3 писал(а):
Re: Бриллиантовая Роза / Rosa Diamante / Серии: 91-125 из 125 [мелодрама, 2012] SATRip, Mvo

_________________


Вернуться к началу
 Профиль Отправить личное сообщение  
 
Начать новую тему Ответить на тему  [ Сообщений: 4 ] 




Для Мосгорсуда, Роскомнадзора и рекламодателей:: mosgorsud-torrent[собачка]yandex.ru