Торрент файл
скачать торрент магнет ссылка Добавлен: 07 фев 2015, 00:25
Размер: 18.32 ГБ
Сидеров: 2
Личеров: 8
Автор

СообщениеДобавлено: 07 фев 2015, 00:25 

Не в сети
Супермодератор
Аватара пользователя
Дата регистрации:
06 июн 2014, 07:51
Спасибо: 576 / 0
Сообщения: 2002
Информация о фильме
Название: Скорпион
Оригинальное название: Scorpion
Год выхода: 2014
Жанр: боевик, драма
Режиссер: Гэри Фледер, Дуайт Х. Литтл, Бобби Рот
В ролях: Элиес Габел, Кэтрин МакФи, Эри Стидэм, Эдди Кэй Томас, Джейдин Вонг, Эмили Робинсон, Роберт Патрик, Рис Риос и др.

О фильме:
Сюжет основан на реальных событиях. Это история об эксцентричном гении и его группе вундеркиндов. Они являются аналитическим центром, работающим на службу национальной безопасности, и их задача — разбираться со сложными угрозами современности.



Страна: США
Продолжительность: ~ 00:41:30
Перевод: Профессиональный (многоголосый закадровый) BaibaKo

Файл
Кодек: MPEG-4 AVC/H.264
Качество: 720p WEB-DL
Видео: AVC 3962 Кбит/сек 1280x720 (1.778) 23.976 кадр/сек 0.179 Бит/Пиксели
Звук:
Аудио rus: AC-3 6 каналов 48,0 КГц 384 Кбит/сек | BaibaKo
Аудио eng: AC-3 6 каналов 48,0 КГц 384 Кбит/сек
Субтитры: отсутствуют

Семпл

Релиз-группа: BaibaKo
Перевод: Татьяна Saavick
Озвучка: Anna_Smile, Юлия Котурбаш, Андрей Корзаченко, Виталий Ткаченко и Олекса Мельник
Монтаж: Виталий Ткаченко
Обложка:
tvblog

01. Пилот
02. Единственная неудача
03. Циклон
04. Ловкость рук
05. Плутоний навсегда
06. Истинное я
07. День отца
08. Рискованный бизнес
09. Преступный элемент
10. Талисманы
11. Возмездие
12.Домино
Общее
Уникальный идентификатор : 243768362156387136470314135996078699442 (0xB764142D5BE09A0E94EF3FC0030733B2)
Полное имя : C:FilmsScorpion.S01Scorpion.s01e01.HD720p.WEB-DL.Rus.Eng.BaibaKo.tv.mkv
Формат : Matroska
Версия формата : Version 4 / Version 2
Размер файла : 1,40 Гбайт
Продолжительность : 41 м.
Общий поток : 4826 Кбит/сек
Дата кодирования : UTC 2014-09-24 01:17:19
Программа кодирования : mkvmerge v6.7.0 ('Back to the Ground') 64bit built on Jan 8 2014 15:10:52
Библиотека кодирования : libebml v1.3.0 + libmatroska v1.4.1

Видео
Идентификатор : 1
Формат : AVC
Формат/Информация : Advanced Video Codec
Профиль формата : High@L3.1
Параметр CABAC формата : Нет
Параметр ReFrames формата : 2 кадра
Идентификатор кодека : V_MPEG4/ISO/AVC
Продолжительность : 41 м.
Битрейт : 3962 Кбит/сек
Ширина : 1280 пикселей
Высота : 720 пикселей
Соотношение сторон : 16:9
Режим частоты кадров : Постоянный
Частота кадров : 23,976 кадра/сек
Цветовое пространство : YUV
Субдискретизация насыщенности : 4:2:0
Битовая глубина : 8 бит
Тип развёртки : Прогрессивная
Бит/(Пиксели*Кадры) : 0.179
Размер потока : 1,15 Гбайт (82%)
Язык : English
Default : Да
Forced : Нет
Основные цвета : BT.709
Характеристики трансфера : BT.709
Коэффициенты матрицы : BT.709

Аудио #1
Идентификатор : 2
Формат : AC-3
Формат/Информация : Audio Coding 3
Расширение режима : CM (complete main)
Параметр Endianness формата : Big
Идентификатор кодека : A_AC3
Продолжительность : 41 м.
Вид битрейта : Постоянный
Битрейт : 384 Кбит/сек
Каналы : 6 каналов
Расположение каналов : Front: L C R, Side: L R, LFE
Частота : 48,0 КГц
Битовая глубина : 16 бит
Метод сжатия : С потерями
Размер потока : 114 Мбайт (8%)
Язык : Russian
Default : Да
Forced : Нет

Аудио #2
Идентификатор : 3
Формат : AC-3
Формат/Информация : Audio Coding 3
Расширение режима : CM (complete main)
Параметр Endianness формата : Big
Идентификатор кодека : A_AC3
Продолжительность : 41 м.
Вид битрейта : Постоянный
Битрейт : 384 Кбит/сек
Каналы : 6 каналов
Расположение каналов : Front: L C R, Side: L R, LFE
Частота : 48,0 КГц
Битовая глубина : 16 бит
Метод сжатия : С потерями
Размер потока : 114 Мбайт (8%)
Язык : English
Default : Нет
Forced : Нет




реклама партнёра


Вернуться к началу
 Профиль Отправить личное сообщение  
 
   Похожие торренты   Автор   Торрент   Размер 
В этой теме нет новых непрочитанных сообщений. Скорпион / Scorpion [01x01-12 из 13] (Гэри Фледер, Дуайт Х. Литтл, Бобби Рот) [2014, боевик, драма, WEB-DL 720p | BaibaKo]

Nickolas3435

26 | 18

16.93 ГБ

В этой теме нет новых непрочитанных сообщений. Скорпион / Scorpion [01x01-13 из 22] (Гэри Фледер, Дуайт Х. Литтл, Бобби Рот)[2014, триллер, драма, боевик, WEB-DLRip | BaibaKo]

Nickolas3435

28 | 25

7.26 ГБ

В этой теме нет новых непрочитанных сообщений. Скорпион / Scorpion [01x01-05 из 13] (Гэри Фледер, Дуайт Х. Литтл, Бобби Рот) [2014, триллер, драма, боевик, WEB-DL 720p | IdeaFilm]

Nickolas3435

15 | 28

7.55 ГБ

В этой теме нет новых непрочитанных сообщений. Скорпион / Scorpion [01x01-21 из 22] (Гэри Фледер, Дуайт Х. Литтл, Бобби Рот) [2014, боевик, драма, WEB-DLRip | IdeaFilm]

Nickolas3435

10 | 14

11.25 ГБ

В этой теме нет новых непрочитанных сообщений. Скорпион / Scorpion [02x01-08 из 22] (Гэри Фледер, Дуайт Х. Литтл, Бобби Рот) [2015, Боевик, Драма, WEB-DL 720p | BaibaKo]

Dracon

24 | 50

12.16 ГБ

В этой теме нет новых непрочитанных сообщений. Скорпион / Scorpion [02х01-15 из 22] (Гэри Фледер, Дуайт Х. Литтл, Бобби Рот) [2015, триллер, драма, боевик, WEB-DLRip | BaibaKo]

Dracon

25 | 99

7.57 ГБ

В этой теме нет новых непрочитанных сообщений. Скорпион / Scorpion / 2 сезон 1-24 серии из 24 (Гэри Фледер, Дуайт Х. Литтл, Бобби Рот) [2015, триллер, драма, боевик, WEB-DLRip | BaibaKo]

Nickolas3435

84 | 70

11.97 ГБ


Начать новую тему Ответить на тему  [ 1 сообщение ] 




Для Мосгорсуда, Роскомнадзора и рекламодателей:: mosgorsud-torrent[собачка]yandex.ru