Торрент файл
скачать торрент магнет ссылка Добавлен: 04 фев 2015, 18:53
Размер: 12.09 ГБ
Сидеров: 2
Личеров: 2
Автор

СообщениеДобавлено: 04 фев 2015, 18:53 

Не в сети
Аватара пользователя
Дата регистрации:
09 авг 2014, 12:07
Спасибо: 48 / 1
Сообщения: 156
Откуда: КРАСНОГОРСК
От A до Z / A to Z



Год выпуска: 2014-2015
Выпущено: США, NBC, Le Train Train, Warner Bros. Television
Жанр: Романтический, комедия, мелодрама
Продолжительность: 1х ~ 00:26:00 + 12 x ~ 00:21:30
Сезон: 1
Серия: 1-13
Количество серий в сезоне: 13
Перевод: Константин Кривоногов
Монтаж и сведение звука: Сергей Мартынов
Роли озвучивали: Евгения Тихонова, Сергей Пономарёв, Михаил Суслов
Озвучка:Профессиональная многоголосая закадровая(AlexFilm)
Субтитры: Русские,Английские




Режиссер: Майкл Патрик Джэнн, Стив Пинк

В ролях: Бен Фельдман, Кристин Милиоти, Генри Жебровский, Ленора Кричлоу, Кристина Кирк, Кэти Сагал, Парвеш Шина, Хонг Чау, Нэнси Фридрих, Хантер Пэйтон

Сериал рассказывает о жизни Эндрю, работника сайта знакомств, мечтающего о встрече с девушкой своих грёз, и Зельды, серьёзного адвоката, которую растила мать-хиппи и которой свойственны бунтарские поступки. Зельда знакомится с Эндрю, пытаясь разобраться с ошибкой при подборе пары на сайте, и между двумя людьми вспыхивает роман. Сериал является хроникой их отношений от A до Z.




Качество : WEB-DLRip-AVC 1080p
Формат: MPEG-4
Видео кодек: H264
Видео: 5232Кбит/сек,1920х1080(16.9),в 25.000кадр/сек,AVC(Baseline@L4.0)(1Ref Frames)
Аудио кодек: AAC
Аудио Russian:276Кбит/сек,48.0КГц,2канала,AAC,(Version4)(LC)

Звуковая дорожка сделана путем наложения чистого голоса озвучивателей на центральный канал оригинальной дорожки. Качество идентично звуковой дорожке.



01. А - А давайте знакомиться / Pilot
02. Б - Большая победа / B Is for Big Glory
03. В - Всё любопытственнее и любопытственнее / C Is for Curiouser & Curiouser
04. Г - Грусть по Дэбби / D Is for Debbie
05. Д - Духи ада / E Is for Ectoplasm
06. Е - Если будешь драться, то я буду кусаться / F Is for Fight, Fight, Fight!
07. Ж - Жги, Джеронимо! / G Is for Geronimo
08. З - Заложник отношений / H Is for Hostile Takeover
09. И - Истерики, скандалы, нервотрёпка
10. К - Кто такой Айвен Вон?
11. K Is for Keep Out
12. L Is for Likability
13. M Is for Meant to Be



General
Полное имя : F:\С Е Р И А Л Ы\От A до Z _A to Z\A_TO_Z_2014_S01_RUS[AlexFilm]_x264_Nikolai.Baranov_WEB-DLRip-AVC_(1080p)\A_TO_Z_2014_S01E01_RUS[AlexFilm]_x264_Nikolai.Baranov_WEB-DLRip-AVC_(1080p).mp4
Формат : MPEG-4
Профиль формата : Base Media
Идентификатор кодека : isom
Размер файла : 1.00 GiB
Продолжительность : 26mn 1s
Режим общего битрейта : Variable
Общий поток : 5 513 Kbps
Название фильма : A to Z 1x01 A is for Acquaintances @ AlexFilm
Дата кодирования : UTC 2014-11-14 17:05:25
Дата пометки : UTC 2014-11-14 17:05:25
Программа кодирования : Lavf51.12.1

Video
Идентификатор : 1
Формат : AVC
Формат/Информация : Advanced Video Codec
Профиль формата : Baseline@L4.0
Параметр CABAC формата : No
Параметр ReFrames формата : 1 frame
Параметр GOP формата : M=1, N=12
Идентификатор кодека : avc1
Идентификатор кодека/Информация : Advanced Video Coding
Продолжительность : 26mn 1s
Вид битрейта : Variable
Битрейт : 5 232 Kbps
Максимальный битрейт : 7 500 Kbps
Ширина : 1 920 pixels
Высота : 1 080 pixels
Соотношение сторон : 16:9
Режим частоты кадров : Constant
Частота кадров : 25.000 fps
Частота кадров в оригинале : 24.000 fps
Цветовое пространство : YUV
Субдискретизация насыщенности : 4:2:0
Битовая глубина : 8 bits
Тип развёртки : Progressive
Бит/(Пиксели*Кадры) : 0.101
Размер потока : 974 MiB (95%)
Язык : English
Дата кодирования : UTC 2014-11-14 17:05:25
Дата пометки : UTC 2014-11-14 17:05:25

Audio
Идентификатор : 2
Формат : AAC
Формат/Информация : Advanced Audio Codec
Профиль формата : LC
Идентификатор кодека : 40
Продолжительность : 26mn 1s
Вид битрейта : Variable
Битрейт : 276 Kbps
Каналы : 6 channels
Расположение каналов : Front: L C R, Side: L R, LFE
Частота : 48.0 KHz
Метод сжатия : Lossy
Размер потока : 51.4 MiB (5%)
Дата кодирования : UTC 2014-11-14 17:05:25
Дата пометки : UTC 2014-11-14 17:05:25









1. Открыть торрент
2. Снять галки с тех файлов торрента, которые мы не хотим закачивать. Оставляем только на нужных нам файлах (файле).
3. Нажать О.К.

В клиенте utorrent

Инструкция

1) Открыть торрент


2) Снять галки с тех файлов торрента, которые мы не хотим закачивать:

* либо вручную, снимая с каждого файла галку( скрин №1)
* либо, нажав кнопку "Снять метки (Select None)", сняв сразу со всех файлов(скрин №2)
№1

№2

Оставляем только на нужных нам файлах (файле).

3)Нажать О.К









Внимание!!! 04.02. 2015. РАЗДАЧА ОБНОВЛЕНА. ОБНОВИТЕ ТОРЕНТ ФАЙЛ.ПРИЯТНОГО ПРОСМОТРА .


Релиз от: Nikolai.Baranov







_________________

Легко быть оптимистом, когда судьба не валит с ног тяжелыми ударами, а лишь иногда легонько шлепает по заднице.



реклама партнёра


Вернуться к началу
 Профиль Отправить личное сообщение  
 
   Похожие торренты   Автор   Торрент   Размер 
В этой теме нет новых непрочитанных сообщений. От A до Z / A to Z (Сезон 1, Серия 1-10 из 13) ( Майкл Патрик Джэнн, Стив Пинк) [2014-2015, Романтический, комедия, мелодрама, WEBDLRip-AVC][1080р] [MVO] [AlexFilm]

Враг Нароода

13 | 11

9.34 ГБ

В этой теме нет новых непрочитанных сообщений. От A до Z / A to Z (Сезон 1, Серия 1-8 из 13) ( Майкл Патрик Джэнн, Стив Пинк) [2014, Романтический, комедия, мелодрама, WEBDLRip-AVC][1080р] [MVO] [AlexFilm]

Враг Нароода

11 | 6

7.46 ГБ

В этой теме нет новых непрочитанных сообщений. От А до Я / A to Z [s01] (Майкл Патрик Джэнн, Стив Пинк) [2014-2015, комедия, WEB-DLRip | AlexFilm]

Nickolas3435

58 | 20

3.23 ГБ

В этой теме нет новых непрочитанных сообщений. Константин / Constantine (Сезон 1, Серия 1-13 из 13) ( Нил Маршалл) [2014-2015, Ужасы, фэнтези, боевик, WEBDLRip-AVC][1080р] [MVO] [AlexFilm]

Враг Нароода

21 | 60

30.13 ГБ

В этой теме нет новых непрочитанных сообщений. Череп и кости / Crossbones (Сезон 1, Серии 1-7 из 10) (Дэвид Слэйд, Киаран Доннелли, Дэниэл Эттиэс, Терри Макдонаф, Деран Сарафян, Стив Шилл) [2014, Драма, приключения, экранизация, WEBDLRip-AVC 1080р] [DD5.1] [MVO] [AlexFilm]

Nikolai.Baranov

3 | 15

16.33 ГБ

В этой теме нет новых непрочитанных сообщений. Череп и кости / Crossbones (Сезон 1, Серии 1-9 из 9) (Дэвид Слэйд, Киаран Доннелли, Дэниэл Эттиэс, Терри Макдонаф, Деран Сарафян, Стив Шилл) [2014, Драма, приключения, экранизация, WEBDLRip-AVC 1080р] [DD5.1] [MVO] [AlexFilm]

Враг Нароода

38 | 8

20.75 ГБ

В этой теме нет новых непрочитанных сообщений. Штамм / The Strain (Сезон 1, Серия 1-13 из 13) (Гильермо Дель Торо, Дэвид Семел, Кит Гордон) [2014, Ужасы, фантастика, драма, вампиры, экранизация, WEBDLRip-AVC 1080р] [MVO] [AlexFilm]

Враг Нароода

28 | 34

31.95 ГБ


Начать новую тему Ответить на тему  [ 1 сообщение ] 




Для Мосгорсуда, Роскомнадзора и рекламодателей:: mosgorsud-torrent[собачка]yandex.ru