Торрент файл
скачать торрент магнет ссылка Добавлен: 16 янв 2015, 09:59
Размер: 26.65 ГБ
Сидеров: 15
Личеров: 6
Автор

СообщениеДобавлено: 16 янв 2015, 10:00 

Не в сети
Аватара пользователя
Дата регистрации:
09 авг 2014, 12:07
Спасибо: 61 / 1
Сообщения: 220
Откуда: КРАСНОГОРСК
Палач




Год выпуска: 2015
Выпущено: Россия, ООО «Студия Русский проект»
Жанр: Триллер
Продолжительность: 00:51:00
Серия: 1-10
Количество серий в сезоне: 10
Озвучка :НЕ ТРЕБУЕТСЯ
Субтитры: НЕТ



Режиссер: Вячеслав Никифоров

В ролях: Андрей Смоляков, Виктория Толстоганова, Юлия Пересильд, Марина Александрова, Алексей Бардуков, Юрий Тарасов, Владимир Юматов, Вадим Андреев, Даниэла Стоянович, Саша Дробитько, Виталий Кищенко, Мария Андреева, Людмила Полякова, Анатолий Журавлёв, Алёна Константинова, Вероника Лысакова, Филипп Гуревич, Василий Слюсаренко, Юрий Чурсин, Светлана Ходченкова, Денис Бургазлиев, Иван Волков, Луиза Мосендз, Анатолий Просалов, Василий Сахновский, Анвар Халилулаев, Вероника Вернадская, Алексей Дмитриев, Ёла Санько, Анатолий Калмыков, Юлия Куварзина, Станислав Беляев, Руслан Ягудин, Ася Дубровская, Игорь Волков, Александр Наумов



События разворачиваются на окраине Москвы в 1965 году. В центре — история разоблачения женщины-палача, которая во время войны по указке немцев расстреливала пленных, партизан, мирных жителей. Это фактически отдельная гражданская война изуверки со своим народом. В войну ей едва исполнилось 20 лет, а на ее счету было уже полторы тысячи убийств.

Своих жертв она расстреливала из пулемета, прячась за игрушечной маской зайчика. Потом выпивала бутылку самогона и затем появлялась уже на следующее утро без маски и жила обычной жизнью, такой же, как и все остальные… Поэтому после войны вычислить убийцу было очень непросто. Дело это поручили главному следователю. Его подозрения падают то на одну, то на другую женщину…





Качество :HDTVRip-AVC 1080p
Формат: MPEG-4
Кодек: H264
Видео: 7318Кбит/сек,1920х1080(16.9),в 25.000кадр/сек,AVC(Baseline@L4.0)(1Ref Frames)
Кодек: AAC
Аудио Russian Dolby Digital 5.1:235Кбит/сек,48.0КГц,6каналов,AAC,(Version4)(LC)





Звуковая дорожка сделана путем наложения чистого голоса озвучивателей на центральный канал оригинальной дорожки. Качество идентично звуковой дорожке.


General
Полное имя : D:\Н А Ш Е К И Н О\П А Л А Ч\PALACH_2015_RUS_[1CANAL_RUSSIA]_DD5.1_x264_Nikolai.Baranov_HDRip-AVC_(1080p)\BUTCHER_2015_Е01_RUS_[1CANAL_RUSSIA]_DD5.1_x264_Nikolai.Baranov_HDRip-AVC_(1080p).mp4
Формат : MPEG-4
Профиль формата : Base Media
Идентификатор кодека : isom
Размер файла : 2.69 GiB
Продолжительность : 50mn 59s
Режим общего битрейта : Variable
Общий поток : 7 557 Kbps
Название фильма : A to Z 1x10 J is for Jan Vaughan @ AlexFilm
Дата кодирования : UTC 2015-01-13 17:33:07
Дата пометки : UTC 2015-01-13 17:33:07
Программа кодирования : Lavf51.12.1

Video
Идентификатор : 1
Формат : AVC
Формат/Информация : Advanced Video Codec
Профиль формата : Baseline@L4.0
Параметр CABAC формата : No
Параметр ReFrames формата : 1 frame
Параметр GOP формата : M=1, N=12
Идентификатор кодека : avc1
Идентификатор кодека/Информация : Advanced Video Coding
Продолжительность : 50mn 59s
Вид битрейта : Variable
Битрейт : 7 318 Kbps
Максимальный битрейт : 10.5 Mbps
Ширина : 1 920 pixels
Высота : 1 080 pixels
Соотношение сторон : 16:9
Режим частоты кадров : Constant
Частота кадров : 25.000 fps
Частота кадров в оригинале : 24.000 fps
Цветовое пространство : YUV
Субдискретизация насыщенности : 4:2:0
Битовая глубина : 8 bits
Тип развёртки : Progressive
Бит/(Пиксели*Кадры) : 0.141
Размер потока : 2.61 GiB (97%)
Дата кодирования : UTC 2015-01-13 17:33:07
Дата пометки : UTC 2015-01-13 17:33:07

Audio
Идентификатор : 2
Формат : AAC
Формат/Информация : Advanced Audio Codec
Профиль формата : LC
Идентификатор кодека : 40
Продолжительность : 50mn 59s
Вид битрейта : Variable
Битрейт : 235 Kbps
Каналы : 6 channels
Расположение каналов : Front: L C R, Side: L R, LFE
Частота : 48.0 KHz
Метод сжатия : Lossy
Размер потока : 85.8 MiB (3%)
Язык : Russian
Дата кодирования : UTC 2015-01-13 17:33:07
Дата пометки : UTC 2015-01-13 17:33:07








1. Открыть торрент
2. Снять галки с тех файлов торрента, которые мы не хотим закачивать. Оставляем только на нужных нам файлах (файле).
3. Нажать О.К.

В клиенте utorrent

Инструкция

1) Открыть торрент


2) Снять галки с тех файлов торрента, которые мы не хотим закачивать:

* либо вручную, снимая с каждого файла галку( скрин №1)
* либо, нажав кнопку "Снять метки (Select None)", сняв сразу со всех файлов(скрин №2)
№1

№2

Оставляем только на нужных нам файлах (файле).

3)Нажать О.К







Релиз от: Nikolai.Baranov







_________________

Легко быть оптимистом, когда судьба не валит с ног тяжелыми ударами, а лишь иногда легонько шлепает по заднице.



реклама партнёра


Вернуться к началу
 Профиль Отправить личное сообщение  
 
   Похожие торренты   Автор   Торрент   Размер 
В этой теме нет новых непрочитанных сообщений. Палач (Вячеслав Никифоров) (Серии 1-10 из 10 ) [2014 , Детектив, криминал, триллер , HDTVRip 1080p]

Враг Нароода

1 | 1

26.57 ГБ

В этой теме нет новых непрочитанных сообщений. Палач [01-10 из 10] (Вячеслав Никифоров) [Триллер, 2014] HDTVRip

Dracon

8516 | 2581

7.03 ГБ

В этой теме нет новых непрочитанных сообщений. Палач [01-10 из 10] (Вячеслав Никифоров) [Триллер, 2014] SatRip

Dracon

13 | 5

6.96 ГБ

В этой теме нет новых непрочитанных сообщений. Палач [01-10 из 10] (Вячеслав Никифоров) [Триллер, 2014] HDTV 1080i

Dracon

887 | 510

27.51 ГБ

В этой теме нет новых непрочитанных сообщений. Палач (Висельник) / Hangman [Триллер, 2015] HDRip, avo

Dracon

26 | 3

1.26 ГБ

В этой теме нет новых непрочитанных сообщений. Палач / The Bastard Executioner [01x01-10 из 10] (Пэрис Барклай, Билл Джирхарт, Кари Скогланд) [драма, 2015] WEB-DL 1080p [NewStudio]

Dracon

2 | 4

23.46 ГБ

В этой теме нет новых непрочитанных сообщений. Временно недоступен ( Михаил Хлебородов) (Серии 1-8 из 8) [2015 , Комедия , HDTVRip 1080p]

Враг Нароода

6 | 2

18.2 ГБ


Начать новую тему Ответить на тему  [ 1 сообщение ] 




Для Мосгорсуда, Роскомнадзора и рекламодателей:: mosgorsud-torrent[собачка]yandex.ru