Торрент файл
скачать торрент магнет ссылка Добавлен: 15 янв 2015, 12:01
Размер: 7.46 ГБ
Сидеров: 3
Личеров: 3
Автор

СообщениеДобавлено: 15 янв 2015, 12:01 

Не в сети
Зам. Админа
Аватара пользователя
Дата регистрации:
02 дек 2010, 12:39
Спасибо: 12623 / 214
Сообщения: 28012
Год выхода: 2014
Жанр: драма, криминал, детектив
Режиссер:  Том Шенклэнд
В ролях: Джеймс Несбитт, Фрэнсис О`Коннор, Чеки Карио, Анастасия Хилл, Эмили Декьенн, Джейсон Флеминг, Саид Тагмауи

О фильме:
Во время чемпионата мира по футболу 2006 года британская семья теряет во Франции своего маленького сына посреди футбольной вакханалии, которая творилась на улицах по случаю финала. Это разрушает их брак, и вскоре жена находит себе нового мужчину. Спустя восемь лет отец пропавшего мальчика нанимает французского детектива, чтобы возобновить поиски, — появились доказательства того, что ребенок все еще жив.

Кинопоиск   IMDB

Качество: HDTVRip [720p]
Видео: AVC, 1280x720, 25 fps, ~ 2552 Kbit/s
Аудио: AC3, 48 kHz, 2 ch, 192 kbit/s
Продолжительность: 8 x ~ 00:58:00
Перевод: Любительский (двухголосый) [Victory-Films]

DownloadsПропавший без вести 2014- 1 сезон-Victory-Filmsthe_missing.s01e01.720p.mkv
  General
    Unique ID : 315832763812922385718523510125598989466 (0xED9B2D7F5BD0D9FEF8ED278543BDDC9A)
    Complete name : DownloadsПропавший без вести 2014- 1 сезон-Victory-Filmsthe_missing.s01e01.720p.mkv
    Format : Matroska
    Format version : Version 2
    File size : 1.04 GiB
    Duration : 58mn 28s
    Overall bit rate : 2 552 Kbps
    Encoded date : UTC 2014-11-29 08:21:32
    Writing application : Lavf54.63.104
    Writing library : Lavf54.63.104
  Video #1
    ID : 1
    Format : AVC
    Format/Info : Advanced Video Codec
    Format profile : Main@L3.1
    Format settings, CABAC : Yes
    Format settings, ReFrames : 1 frame
    Codec ID : V_MPEG4/ISO/AVC
    Duration : 58mn 28s
    Bit rate : 2 379 Kbps
    Width : 1 280 pixels
    Height : 720 pixels
    Display aspect ratio : 16:9
    Frame rate mode : Constant
    Frame rate : 25.000 fps
    Color space : YUV
    Chroma subsampling : 4:2:0
    Bit depth : 8 bits
    Scan type : Progressive
    Bits/(Pixel*Frame) : 0.103
    Stream size : 966 MiB (90%)
    Writing library : x264 core 129
    Encoding settings : cabac=1 / ref=1 / deblock=1:0:0 / analyse=0x1:0x131 / me=dia / subme=2 / psy=1 / psy_rd=1.00:0.00 / mixed_ref=0 / me_range=16 / chroma_me=1 / trellis=0 / 8x8dct=0 / cqm=0 / deadzone=21,11 / fast_pskip=1 / chroma_qp_offset=0 / threads=8 / lookahead_threads=1 / sliced_threads=0 / nr=0 / decimate=1 / interlaced=0 / bluray_compat=0 / constrained_intra=0 / bframes=0 / weightp=2 / keyint=250 / keyint_min=25 / scenecut=40 / intra_refresh=0 / rc_lookahead=40 / rc=abr / mbtree=1 / bitrate=2379 / ratetol=1.0 / qcomp=0.60 / qpmin=10 / qpmax=51 / qpstep=4 / ip_ratio=1.41 / aq=1:1.00
    Default : Yes
    Forced : No
  Audio #2
    ID : 2
    Format : AC-3
    Format/Info : Audio Coding 3
    Mode extension : CM (complete main)
    Format settings, Endianness : Big
    Codec ID : A_AC3
    Duration : 58mn 28s
    Bit rate mode : Constant
    Bit rate : 192 Kbps
    Channel(s) : 2 channels
    Channel positions : Front: L R
    Sampling rate : 48.0 KHz
    Bit depth : 16 bits
    Compression mode : Lossy
    Stream size : 80.3 MiB (8%)
    Default : Yes
    Forced : No
01. Eden
02. Pray for Me
03. The Meeting
04. Gone Fishing
05. Molly
06. Concrete
07. Return to Eden
08. Till Death








реклама партнёра


Вернуться к началу
 Профиль  
 
   Похожие торренты   Автор   Торрент   Размер 
В этой теме нет новых непрочитанных сообщений. Пропавший без вести / The Missing [s01] (Том Шенклэнд) [драма, криминал, детектив, 2014] HDTVRip, dvo

Dracon

203 | 77

4.55 ГБ

В этой теме нет новых непрочитанных сообщений. Пропавший без вести / Missing [драма, детектив, история, 1982] BDRip 720p, Mvo

salma3

22 | 18

5.73 ГБ

В этой теме нет новых непрочитанных сообщений. Помни меня / Remember me [Season 1 episodes 1-3 of 3] (Эшли Пирс) [Драма, детектив, 2014] HDTVRip, dvo

Dracon

3 | 3

2.05 ГБ

В этой теме нет новых непрочитанных сообщений. В погоне за тенями  / Chasing Shadows [Season 1, Episodes 1-4 of 4] (Кристофер Менол) [Драма, Детектив, Криминал, Триллер, 2014] WEB-DLRip [BaibaKo]

Dracon

5 | 3

2.4 ГБ

В этой теме нет новых непрочитанных сообщений. Босх / Bosch [Season 1, Episodes 1-10 of 10] (Эрнест Р. Дикерсон, Кевин Даулинг, Алекс Закржевский) [драма, детектив, 2014] WebRip 720p, dvo+sub

Dracon

1 | 3

9.26 ГБ

В этой теме нет новых непрочитанных сообщений. Ганнибал / Hannibal [Season 3, Episodes 1-13 of 13] (Гильермо Наварро, Майкл Раймер, Дэвид Слэйд) [Детектив, триллер, криминал, драма, 2015] WEB-DL 720p [NewStudio]

Dracon

7 | 6

18.62 ГБ

В этой теме нет новых непрочитанных сообщений. Ганнибал / Hannibal [Season 3, Episodes 1-13 of 13] (Гильермо Наварро, Майкл Раймер, Дэвид Слэйд) [Детектив, триллер, криминал, драма, 2015] WEB-DL 720p [Jaskier]

Dracon

93 | 97

18.2 ГБ


Начать новую тему Ответить на тему  [ 1 сообщение ] 




Для Мосгорсуда, Роскомнадзора и рекламодателей:: mosgorsud-torrent[собачка]yandex.ru