Торрент файл
скачать торрент магнет ссылка Добавлен: 26 дек 2014, 14:18
Размер: 19.7 ГБ
Сидеров: 101
Личеров: 73
Автор

СообщениеДобавлено: 26 дек 2014, 14:20 

Не в сети
Аватара пользователя
Дата регистрации:
09 авг 2014, 12:07
Спасибо: 49 / 1
Сообщения: 156
Откуда: КРАСНОГОРСК
Мажор

«Умереть, чтобы родиться»



Год выпуска: 2014
Выпущено: Россия, Продюсерский центр «Среда»
Жанр: Криминальная драма
Продолжительность: 00:52:00
Сезон: 1
Серия: 1-12
Количество серий в сезоне: 12
Перевод :Не требуется
Субтитры: Нет
Обложка:Обложка



Режиссер: Константин Статский

В ролях:Павел Прилучный, Карина Разумовская, Дмитрий Шевченко, Денис Шведов, Александр Обласов, Никита Панфилов, Анна Андрусенко, Остап Ступка, Александр Дьяченко, Игорь Жижикин, Заза Чантурия, Дмитрий Гаврилов (II), Марина Дьяконенко, Алла Мартынюк, Саак Дурян


Таких, как наш главный герой Игорь Соколовский, называют мажорами. То есть, детей высокопоставленных, богатых родителей. Наш герой имеет юридическое образование, но ни одного дня не проработал. Безответственный прожигатель жизни. В один из загулов ночью он вступился за приятеля, подрался с полицейскими, выбил табельное оружие у офицера… В итоге отец лишает героя всего и отправляет работать в отделение полиции — то самое, в котором служат ночные полицейские. Его, мажора, там не ждут. Его презирают. Но именно там он начнет становиться мужчиной, встретит свою любовь и найдет убийцу мамы.



Качество :HDTVRip-AVC 720p
Формат: MPEG-4
Видео кодек: H264
Видео: 4178Кбит/сек,1280х720(16.9),в 25.000кадр/сек,AVC(Baseline@L3.1)(1Ref Frames)
Аудио кодек: AAC
Аудио Russian Dolby Digital 5.1:288Кбит/сек,48.0КГц,6каналов,AAC,(Version4)(LC)

Звуковая дорожка сделана путем наложения чистого голоса озвучивателей на центральный канал оригинальной дорожки. Качество идентично звуковой дорожке.


General
Полное имя : D:\Н А Ш Е К И Н О\М А Ж О Р\MAZHOR_2014_S01_RUS[1CANAL_RUSSIA]_DD5.1_x264_Nikolai.Baranov_HDTVRip-AVC_(720p)\MAZHOR_2014_S01Е01_RUS[1CANAL_RUSSIA]_DD5.1_x264_Nikolai.Baranov_HDTVRip-AVC_(720p).mp4
Формат : MPEG-4
Профиль формата : Base Media
Идентификатор кодека : isom
Размер файла : 1.63 GiB
Продолжительность : 52mn 16s
Режим общего битрейта : Variable
Общий поток : 4 472 Kbps
Дата кодирования : UTC 2014-12-25 06:51:18
Дата пометки : UTC 2014-12-25 06:51:18
Программа кодирования : Lavf51.12.1

Video
Идентификатор : 1
Формат : AVC
Формат/Информация : Advanced Video Codec
Профиль формата : Baseline@L3.1
Параметр CABAC формата : No
Параметр ReFrames формата : 1 frame
Параметр GOP формата : M=1, N=12
Идентификатор кодека : avc1
Идентификатор кодека/Информация : Advanced Video Coding
Продолжительность : 52mn 16s
Вид битрейта : Variable
Битрейт : 4 178 Kbps
Максимальный битрейт : 6 000 Kbps
Ширина : 1 280 pixels
Высота : 720 pixels
Соотношение сторон : 16:9
Режим частоты кадров : Constant
Частота кадров : 25.000 fps
Частота кадров в оригинале : 24.000 fps
Цветовое пространство : YUV
Субдискретизация насыщенности : 4:2:0
Битовая глубина : 8 bits
Тип развёртки : Progressive
Бит/(Пиксели*Кадры) : 0.181
Размер потока : 1.53 GiB (93%)
Дата кодирования : UTC 2014-12-25 06:51:18
Дата пометки : UTC 2014-12-25 06:51:18

Audio
Идентификатор : 2
Формат : AAC
Формат/Информация : Advanced Audio Codec
Профиль формата : LC
Идентификатор кодека : 40
Продолжительность : 52mn 16s
Вид битрейта : Variable
Битрейт : 288 Kbps
Каналы : 6 channels
Расположение каналов : Front: L C R, Side: L R, LFE
Частота : 48.0 KHz
Метод сжатия : Lossy
Размер потока : 108 MiB (6%)
Дата кодирования : UTC 2014-12-25 06:51:18
Дата пометки : UTC 2014-12-25 06:51:18








1. Открыть торрент
2. Снять галки с тех файлов торрента, которые мы не хотим закачивать. Оставляем только на нужных нам файлах (файле).
3. Нажать О.К.

В клиенте utorrent

Инструкция

1) Открыть торрент


2) Снять галки с тех файлов торрента, которые мы не хотим закачивать:

* либо вручную, снимая с каждого файла галку( скрин №1)
* либо, нажав кнопку "Снять метки (Select None)", сняв сразу со всех файлов(скрин №2)
№1

№2

Оставляем только на нужных нам файлах (файле).

3)Нажать О.К







Релиз от: Nikolai.Baranov







_________________

Легко быть оптимистом, когда судьба не валит с ног тяжелыми ударами, а лишь иногда легонько шлепает по заднице.



реклама партнёра


Вернуться к началу
 Профиль Отправить личное сообщение  
 
   Похожие торренты   Автор   Торрент   Размер 
В этой теме нет новых непрочитанных сообщений. Мажор [01-12 из 12] (Константин Статский) [2014, Криминальная драма, HDTVRip 720p]

Nickolas3435

1271 | 584

18.67 ГБ

В этой теме нет новых непрочитанных сообщений. Мажор [01-12 из 12] [Криминальная драма, 2014] HDTV 1080i

Dracon

434 | 305

40.62 ГБ

В этой теме нет новых непрочитанных сообщений. Мажор [01-10 из 12] [Криминальная драма, 2014] HDTV 1080i

Dracon

В этой теме нет новых непрочитанных сообщений. Рэй Донован / Ray Donovan (Аллен Коултер) (Сезон 1-2, Серия 1-14 из 24) [ 2013- 2014, Криминальная драма, WEB-DLRip-AVC 720p] [MVO] [NewStudio]

Nikolai.Baranov

8 | 13

18.34 ГБ

В этой теме нет новых непрочитанных сообщений. Рэй Донован / Ray Donovan (Аллен Коултер) (Сезон 1-2, Серия 1-24 из 24) [ 2013- 2014, Криминальная драма, WEB-DLRip-AVC 720p] [MVO] [NewStudio]

Враг Нароода

38 | 27

31.41 ГБ

В этой теме нет новых непрочитанных сообщений. Константин / Constantine / 1 сезон 1-13 серии из 13 [ужасы, фэнтези, 2014] WEB-DL, HDTVRip 720p [AlexFilm]

Dracon

6 | 5

19.01 ГБ

В этой теме нет новых непрочитанных сообщений. Как я стал русским (Сезон 1 , Серии 1-20 из 20) (Константин Статский) [2015 , Комедия , WEB-DLRip 1080p]

Враг Нароода

0 | 1

18.9 ГБ


Начать новую тему Ответить на тему  [ 1 сообщение ] 




Для Мосгорсуда, Роскомнадзора и рекламодателей:: mosgorsud-torrent[собачка]yandex.ru