Торрент файл
скачать торрент магнет ссылка Добавлен: 22 дек 2014, 12:31
Размер: 2.15 ГБ
Сидеров: 398
Личеров: 30
Автор

СообщениеДобавлено: 22 дек 2014, 12:31 

Не в сети
Зам. Админа
Аватара пользователя
Дата регистрации:
02 дек 2010, 12:39
Спасибо: 12461 / 214
Сообщения: 27968
Год выпуска: 2014
Жанр: Мелодрама
Режиссер: Артур Румынский
В ролях: Эльвира Болгова, Александр Никитин, Елена Ручкина, Халима Искандерова, Олег Масленников-Войтов

О фильме: Ксюше Кузнецовой почти 40 лет. Свою жизнь она по привычке откладывает на потом: никак не может решиться усыновить Павлика, которого уже давно навещает в детском доме, выгнать обнаглевшего вечного жениха Вадика, поставить на место подруг, бесцеремонно вмешивающихся в её жизнь, и призвать к порядку бандита Ваху, чей ресторан отравляет жизнь всей округе. Но узнав о смертельном диагнозе, Ксюша понимает, что никакого "потом" у неё нет, и начинает жить полной жизнью…

Выпущено: Россия, Марс Медиа Энтертейнмент
Продолжительность: 4 х 00:44:00
Перевод: не требуется

Кодек: XviD
Качество: SATRip
Видео: 720x400 (1.80:1), 25 fps, XviD build 73 ~1548 kbps avg, 0.22 bit/pixel
Аудио: 48 kHz, AC3 Dolby Digital, 2/0 (L,R) ch, ~192.00 kbps avg
Код:
General
Complete name                  : Y:раздачиДевушка.средних.лет.2014.SATRip.RG.Russkie.serialy.&.Files-x1.Девушка.средних.лет.2014.SATRip.RG.Russkie.serialy.&.Files-x.avi
Format                         : AVI
Format/Info                    : Audio Video Interleave
File size                      : 550 MiB
Duration                       : 43mn 46s
Overall bit rate               : 1 758 Kbps
Writing application            : Lavf53.19.0

Video
ID                             : 0
Format                         : MPEG-4 Visual
Format profile                 : Advanced Simple@L5
Format settings, BVOP          : 1
Format settings, QPel          : No
Format settings, GMC           : No warppoints
Format settings, Matrix        : Custom
Codec ID                       : XVID
Codec ID/Hint                  : XviD
Duration                       : 43mn 46s
Bit rate                       : 1 555 Kbps
Width                          : 720 pixels
Height                         : 400 pixels
Display aspect ratio           : 16:9
Frame rate                     : 25.000 fps
Color space                    : YUV
Chroma subsampling             : 4:2:0
Bit depth                      : 8 bits
Scan type                      : Progressive
Compression mode               : Lossy
Bits/(Pixel*Frame)             : 0.216
Stream size                    : 487 MiB (88%)
Writing library                : XviD 73

Audio
ID                             : 1
Format                         : AC-3
Format/Info                    : Audio Coding 3
Mode extension                 : CM (complete main)
Format settings, Endianness    : Big
Codec ID                       : 2000
Duration                       : 43mn 46s
Bit rate mode                  : Constant
Bit rate                       : 192 Kbps
Channel(s)                     : 2 channels
Channel positions              : Front: L R
Sampling rate                  : 48.0 KHz
Bit depth                      : 16 bits
Compression mode               : Lossy
Stream size                    : 60.1 MiB (11%)
Alignment                      : Aligned on interleaves
Interleave, duration           : 32 ms (0.80 video frame)







реклама партнёра


Вернуться к началу
 Профиль  
 
   Похожие торренты   Автор   Торрент   Размер 
В этой теме нет новых непрочитанных сообщений. Если твоя девушка – зомби / Life After Beth [ужасы, мелодрама, комедия, 2014] WEBDLRip, Dub [iTunes]

salma3

87 | 11

1.37 ГБ

В этой теме нет новых непрочитанных сообщений. Если твоя девушка – зомби / Life After Beth [ужасы, мелодрама, комедия, 2014] HDRip, Dub [iTunes]

Dracon

366 | 14

1.37 ГБ

В этой теме нет новых непрочитанных сообщений. Если твоя девушка – зомби / Life After Beth [ужасы, мелодрама, комедия, 2014] BDRip 720p, Dub [iTunes]

Dracon

75 | 3

4.6 ГБ

В этой теме нет новых непрочитанных сообщений. Если твоя девушка – зомби / Life After Beth [ужасы, мелодрама, комедия, 2014] WEBDL 720p, Dub [iTunes]

Dracon

290 | 3

2.73 ГБ

В этой теме нет новых непрочитанных сообщений. Если твоя девушка – зомби / Life After Beth [ужасы, мелодрама, комедия, 2014] BDRip 1080p, Dub [iTunes]

Dracon

4 | 2

6.79 ГБ

В этой теме нет новых непрочитанных сообщений. Любительское видео пары средних лет [2013 г., Amateur, CamRip]

Dievas2

124 | 8

158.13 МБ

В этой теме нет новых непрочитанных сообщений. Девушка Таня [2014 г., Amateur, Toy, CamRip]

friizze

9 | 3

59.33 МБ


Начать новую тему Ответить на тему  [ 1 сообщение ] 




Для Мосгорсуда, Роскомнадзора и рекламодателей:: mosgorsud-torrent[собачка]yandex.ru