Торрент файл
скачать торрент магнет ссылка Добавлен: 12 дек 2014, 10:51
Размер: 2.69 ГБ
Сидеров: 92
Личеров: 11
Автор

СообщениеДобавлено: 12 дек 2014, 10:51 

Не в сети
Супермодератор
Аватара пользователя
Дата регистрации:
06 июн 2014, 07:51
Спасибо: 576 / 0
Сообщения: 2002
◈ Лиллехаммер ◈

Информация о фильме:
✦ Оригинальное название: Лиллехаммер
✦ Оригинальное название: Lilyhammer
✦ Год выхода: 2014
✦ Жанр: Драма, криминал, комедия
✦ Режиссер: Симен Алсвик, Лиза Мари Гамлем
✦ В ролях: Стив Ван Зандт, Тронд Фёуса Аурвог, Мариан Саастад Оттесен, Стайнар Саген, Фридтьов Сохейм, Свен Нордин, Эни Кригсволл, Михаель Акхнес-Персон, Карре Хеллум, Томми Карлсен и др.

Описание фильма:
Тальяно сдал своего босса федералам, и теперь, в рамках программы по защите свидетелей, он переезжает в Лиллехаммер, небольшой норвежский городок, когда-то приютивший зимние олимпийские игры. Сам Фрэнк называет его Лилихэммером, отсюда и название сериала. Фрэнк мечтает о рае с «чистым воздухом, белым снегом и клевыми телками», вдали от соблазнов Нью-Йорка и от карателей мафии. Реальность, конечно же, оказывается не такой, как мечты.



✦ Страна: США, Норвегия, Rubicon TV AS
✦ Продолжительность: ~ 00:49:00 серия
✦ Перевод: Авторский одноголосый - Ю. Сербин
Внимание !!! В сериале присутствует ненормативная лексика!

Информация о файле:
✦ Кодек: XviD
✦ Формат: AVI
✦ Качество: HDTVRip
✦ Видео: MPEG4, XviD, 720x400 (16:9), 25.000 fps, 1 500 Kbps (0.208 bit/pixel)
✦ Аудио Rus: AC-3 Dolby Digital, 48.0 KHz, 2 ch, 192 Kbps, CBR
✔ Семпл

General
Complete name : F:СериалраздачаLilyhammer.S03.HDTVRip.SerbinLilyhammer.S03E01.HDTVRip.Serbin.avi
Format : AVI
Format/Info : Audio Video Interleave
File size : 558 MiB
Duration : 45mn 48s
Overall bit rate : 1 701 Kbps
Writing application : VirtualDubMod 1.5.10.2 (build 2540/release)
Writing library : VirtualDubMod build 2540/release
Video
ID : 0
Format : MPEG-4 Visual
Format profile : Advanced Simple@L5
Format settings, BVOP : Yes
Format settings, QPel : No
Format settings, GMC : No warppoints
Format settings, Matrix : Default (H.263)
Codec ID : XVID
Codec ID/Hint : XviD
Duration : 45mn 48s
Bit rate : 1 500 Kbps
Width : 720 pixels
Height : 400 pixels
Display aspect ratio : 16:9
Frame rate : 25.000 fps
Color space : YUV
Chroma subsampling : 4:2:0
Bit depth : 8 bits
Scan type : Progressive
Bits/(Pixel*Frame) : 0.208
Stream size : 491 MiB (88%)
Writing library : XviD 1.2.1 (UTC 2008-12-04)
Audio
ID : 1
Format : AC-3
Format/Info : Audio Coding 3
Format profile : Dolby Digital
Mode extension : CM (complete main)
Codec ID : 2000
Duration : 45mn 48s
Bit rate mode : Constant
Bit rate : 192 Kbps
Channel(s) : 2 channels
Channel positions : Front: L R
Sampling rate : 48.0 KHz
Bit depth : 16 bits
Stream size : 62.9 MiB (11%)
Alignment : Split accross interleaves
Interleave, duration : 40 ms (1.00 video frame)
Interleave, preload duration : 500 ms




реклама партнёра


Вернуться к началу
 Профиль Отправить личное сообщение  
 
   Похожие торренты   Автор   Торрент   Размер 
В этой теме нет новых непрочитанных сообщений. Лиллехаммер / Lilyhammer [03x01-04 из 08] (Симен Алсвик, Лиза Мари Гамлем) [2014, Драма, криминал, комедия, HDTVRip | Сербин]

Nickolas3435

130 | 47

2.16 ГБ

В этой теме нет новых непрочитанных сообщений. Лиллехаммер  / Lilyhammer [Season 3  episode 1-8 of 8] (Симен Алсвик, Лиза Мари Гамлем) [Криминал, Комедия, Драма, 2014] HDTVRip 720p, Avo

Dracon

4 | 2

12.51 ГБ

В этой теме нет новых непрочитанных сообщений. Лиллехаммер / Lilyhammer [s01-02] (Симен Алсвик, Лиза Мари Гамлем) [Криминал, Комедия, Драма, 2012-2013] HDTVRip 720p, Mvo+Avo

Dracon

154 | 87

38.53 ГБ

В этой теме нет новых непрочитанных сообщений. Лиллехаммер / Lilyhammer [S03] (Симен Алсвик, Лиза Мари Гамлем) [Драма, криминал, комедия, 2014] HDTV 1080i [Amedia]

Dracon

110 | 40

19.58 ГБ

В этой теме нет новых непрочитанных сообщений. Элементарно / Elementary [03x01 из 24] (Джон Дэвид Коулз, Майкл Куэста, Род Холкомб) [2014, Драма, криминал, детектив, HDTVRip | Amedia]

Nickolas3435

575 | 5

550.3 МБ

В этой теме нет новых непрочитанных сообщений. Шерлок / Sherlock [03x01-02 из 03] [Драма, детектив, 2014] HDTVRip, Dub [Первый канал]

Dracon

2392 | 1944

1.77 ГБ

В этой теме нет новых непрочитанных сообщений. Готэм / Gotham [03x01-08 из 22] (триллер, драма, криминал, 2016) HDTVRip 720p | Jetvis Studio

marya111

0 | 0

6.04 ГБ


Начать новую тему Ответить на тему  [ 1 сообщение ] 




Для Мосгорсуда, Роскомнадзора и рекламодателей:: mosgorsud-torrent[собачка]yandex.ru