Торрент файл
скачать торрент магнет ссылка Добавлен: 12 дек 2014, 10:51
Размер: 2.69 ГБ
Сидеров: 92
Личеров: 12
Автор

СообщениеДобавлено: 12 дек 2014, 10:51 

Не в сети
Супермодератор
Аватара пользователя
Дата регистрации:
06 июн 2014, 07:51
Спасибо: 631 / 0
Сообщения: 1997
◈ Лиллехаммер ◈

Информация о фильме:
✦ Оригинальное название: Лиллехаммер
✦ Оригинальное название: Lilyhammer
✦ Год выхода: 2014
✦ Жанр: Драма, криминал, комедия
✦ Режиссер: Симен Алсвик, Лиза Мари Гамлем
✦ В ролях: Стив Ван Зандт, Тронд Фёуса Аурвог, Мариан Саастад Оттесен, Стайнар Саген, Фридтьов Сохейм, Свен Нордин, Эни Кригсволл, Михаель Акхнес-Персон, Карре Хеллум, Томми Карлсен и др.

Описание фильма:
Тальяно сдал своего босса федералам, и теперь, в рамках программы по защите свидетелей, он переезжает в Лиллехаммер, небольшой норвежский городок, когда-то приютивший зимние олимпийские игры. Сам Фрэнк называет его Лилихэммером, отсюда и название сериала. Фрэнк мечтает о рае с «чистым воздухом, белым снегом и клевыми телками», вдали от соблазнов Нью-Йорка и от карателей мафии. Реальность, конечно же, оказывается не такой, как мечты.



✦ Страна: США, Норвегия, Rubicon TV AS
✦ Продолжительность: ~ 00:49:00 серия
✦ Перевод: Авторский одноголосый - Ю. Сербин
Внимание !!! В сериале присутствует ненормативная лексика!

Информация о файле:
✦ Кодек: XviD
✦ Формат: AVI
✦ Качество: HDTVRip
✦ Видео: MPEG4, XviD, 720x400 (16:9), 25.000 fps, 1 500 Kbps (0.208 bit/pixel)
✦ Аудио Rus: AC-3 Dolby Digital, 48.0 KHz, 2 ch, 192 Kbps, CBR
✔ Семпл

General
Complete name : F:СериалраздачаLilyhammer.S03.HDTVRip.SerbinLilyhammer.S03E01.HDTVRip.Serbin.avi
Format : AVI
Format/Info : Audio Video Interleave
File size : 558 MiB
Duration : 45mn 48s
Overall bit rate : 1 701 Kbps
Writing application : VirtualDubMod 1.5.10.2 (build 2540/release)
Writing library : VirtualDubMod build 2540/release
Video
ID : 0
Format : MPEG-4 Visual
Format profile : Advanced Simple@L5
Format settings, BVOP : Yes
Format settings, QPel : No
Format settings, GMC : No warppoints
Format settings, Matrix : Default (H.263)
Codec ID : XVID
Codec ID/Hint : XviD
Duration : 45mn 48s
Bit rate : 1 500 Kbps
Width : 720 pixels
Height : 400 pixels
Display aspect ratio : 16:9
Frame rate : 25.000 fps
Color space : YUV
Chroma subsampling : 4:2:0
Bit depth : 8 bits
Scan type : Progressive
Bits/(Pixel*Frame) : 0.208
Stream size : 491 MiB (88%)
Writing library : XviD 1.2.1 (UTC 2008-12-04)
Audio
ID : 1
Format : AC-3
Format/Info : Audio Coding 3
Format profile : Dolby Digital
Mode extension : CM (complete main)
Codec ID : 2000
Duration : 45mn 48s
Bit rate mode : Constant
Bit rate : 192 Kbps
Channel(s) : 2 channels
Channel positions : Front: L R
Sampling rate : 48.0 KHz
Bit depth : 16 bits
Stream size : 62.9 MiB (11%)
Alignment : Split accross interleaves
Interleave, duration : 40 ms (1.00 video frame)
Interleave, preload duration : 500 ms



Вернуться к началу
 Профиль Отправить личное сообщение  
 
   Похожие торренты   Автор   Торрент   Размер 
В этой теме нет новых непрочитанных сообщений. Готэм / Gotham [03x01-08 из 22] (триллер, драма, криминал, 2016) HDTVRip 720p | Jetvis Studio

marya111

0 | 3

6.04 ГБ

В этой теме нет новых непрочитанных сообщений. Готэм / Gotham [03x01-11 из 22] (триллер, драма, криминал, 2016) HDTVRip 720p | Jetvis Studio

marya111

11 | 33

8.4 ГБ

В этой теме нет новых непрочитанных сообщений. Коварные горничные / Devious Maids [03x01-13 из 13] (Роб Бэйли) [2015, драма, комедия, HDTVRip | LostFilm]

Dracon

61 | 42

6.98 ГБ

В этой теме нет новых непрочитанных сообщений. Пересекая черту / Crossing Lines [03x01-07 из 12] (Дэниэл Персивал, Эрик Валетт, Энди Уилсон) [2015, Боевик, драма, криминал, HDTVRip | Sony Turbo]

Dracon

126 | 35

3.14 ГБ

В этой теме нет новых непрочитанных сообщений. Мари-Шанталь против доктора Ха / Marie-Chantal contre le docteur Kha [комедия, триллер, криминал, 1965] DVDRip, Avo

salma3

55 | 10

1.44 ГБ

В этой теме нет новых непрочитанных сообщений. Глас людской / Le chant des hommes (Мари Хименес / Mary Jimenez) [2015г., Бельгия, драма, HDTVRip 720p] sub

Alfredovich

1 | 0

1.5 ГБ

В этой теме нет новых непрочитанных сообщений. Не отбрасывай тени / Cast No Shadow [фэнтези, триллер, драма, 2014] WEB-DLRip, Avo [Сербин]

salma3

1562 | 186

1.37 ГБ


Начать новую тему Ответить на тему  [ 1 сообщение ] 




Для Мосгорсуда, Роскомнадзора и рекламодателей:: mosgorsud-torrent[собачка]yandex.ru
cron