Торрент файл
скачать торрент магнет ссылка Добавлен: 08 дек 2014, 13:07
Размер: 5.06 ГБ
Сидеров: 25
Личеров: 12
Статус: (salma3)
Автор

СообщениеДобавлено: 08 дек 2014, 13:07 

В сети
Супермодератор
Аватара пользователя
Дата регистрации:
15 фев 2012, 16:44
Возраст: 27
Спасибо: 5143 / 2090
Сообщения: 17501
Последний настоящий мужчина / Last Man Standing

Год выпуска: 2013
Жанр: Комедия
Режиссёр: Джон Пасквин

В ролях: Тим Аллен, Нэнси Трэвис, Александра Кросни, Молли Эфраим, Кейтлин Девер, Кристоф Сандерс, Гектор Элизондо и др.

Описание:
Сегодняшний мир принадлежит женщинам, а этот мужчина задался целью вернуть остальным мужчинам достойное место в обществе.
Мужчины создавали цивилизации, изобрели локомотив и спортивный канал ESPN, но им приходится выяснить, что мир им больше не принадлежит. Быть мужественнее чем Майк Бакстер невозможно. Он маркетинговый директор легендарного спортивного магазина, обожает приключения во время командировок, и, конечно же, водит пикап.
Хотя на работе Майк круче всех, дома он под каблуком у женщин: у своей жены Ванессы, и у трех дочерей — 22-летней Кристин, 17-летней Мэнди и 14-летней Ив. Ванесса вернулась на работу после долгих лет воспитания детей, и, к недовольству коллег мужского пола, быстро получила повышение. Из-за того, что Ванесса много времени проводит на работе, Майку приходится проводить больше времени с дочерьми.



Страна: США
Продолжительность: 22 x ~ 00:22:00
Перевод: Профессиональное, [полное дублирование] [Paramount Comedy]

Качество: WEB-DLRip
Формат: AVI
Видео кодек: XviD
Аудио кодек: MP3
Видео: 720x400 (1.80:1), 23.976 fps, XviD build 64 ~1247 kbps avg, 0.18 bit/pixel
Аудио1: 48 kHz, MPEG Layer 3, 2 ch, ~128 kbps avg [Paramount Comedy]
Аудио2: 48 kHz, MPEG Layer 3, 2 ch, ~128 kbps avg [Оригинал]


Звук: #Antisnl# и Beer kolesik Drinkers
Постер: TaLi4
WEB-DL: Beer kolesik Drinkers
General
Complete name : C:\Users\Администратор\Desktop\Раздачи\Last Man Standing Season 3 Paramount Comedy\last_man_standing.s03e01.web-dl.rus(paramount.comedy).avi
Format : AVI
Format/Info : Audio Video Interleave
File size : 236 MiB
Duration : 21mn 41s
Overall bit rate : 1 519 Kbps
Writing application : VirtualDubMod 1.5.10.3 | http://www.virtualdub-fr.org || (build 2550/release)
Writing library : VirtualDubMod build 2550/release
Video
ID : 0
Format : MPEG-4 Visual
Format profile : Advanced Simple@L5
Format settings, BVOP : 2
Format settings, QPel : No
Format settings, GMC : No warppoints
Format settings, Matrix : Default (H.263)
Codec ID : XVID
Codec ID/Hint : XviD
Duration : 21mn 41s
Bit rate : 1 249 Kbps
Width : 720 pixels
Height : 400 pixels
Display aspect ratio : 16:9
Frame rate : 23.976 fps
Color space : YUV
Chroma subsampling : 4:2:0
Bit depth : 8 bits
Scan type : Progressive
Compression mode : Lossy
Bits/(Pixel*Frame) : 0.181
Stream size : 194 MiB (82%)
Writing library : XviD 64
Audio #1
ID : 1
Format : MPEG Audio
Format version : Version 1
Format profile : Layer 3
Mode : Joint stereo
Mode extension : MS Stereo
Codec ID : 55
Codec ID/Hint : MP3
Duration : 21mn 41s
Bit rate mode : Constant
Bit rate : 128 Kbps
Channel(s) : 2 channels
Sampling rate : 48.0 KHz
Compression mode : Lossy
Stream size : 19.9 MiB (8%)
Alignment : Aligned on interleaves
Interleave, duration : 42 ms (1.00 video frame)
Interleave, preload duration : 504 ms
Audio #2
ID : 2
Format : MPEG Audio
Format version : Version 1
Format profile : Layer 3
Mode : Joint stereo
Mode extension : MS Stereo
Codec ID : 55
Codec ID/Hint : MP3
Duration : 21mn 41s
Bit rate mode : Constant
Bit rate : 128 Kbps
Channel(s) : 2 channels
Sampling rate : 48.0 KHz
Compression mode : Lossy
Stream size : 19.9 MiB (8%)
Alignment : Aligned on interleaves
Interleave, duration : 42 ms (1.00 video frame)
Interleave, preload duration : 504 ms
Writing library : LAME3.99r
Encoding settings : -m j -V 4 -q 0 -lowpass 17 -b 128


_________________



реклама партнёра


Вернуться к началу
 Профиль Отправить личное сообщение  
 
   Похожие торренты   Автор   Торрент   Размер 
В этой теме нет новых непрочитанных сообщений. Последний настоящий мужчина / Last Man Standing [S02] [комедия, 2013-2014] WEB-DLRip 720p, Dub [Paramount Comedy]

salma3

18 | 17

12.68 ГБ

В этой теме нет новых непрочитанных сообщений. Последний настоящий мужчина / Last Man Standing [S03] [комедия, 2013-2014] WEB-DLRip 720p, Dub [Paramount Comedy]

salma3

17 | 16

15.53 ГБ

В этой теме нет новых непрочитанных сообщений. Последний настоящий мужчина / Last Man Standing [S04] [комедия, 2013-2014] WEB-DLRip 720p, Dub [Paramount Comedy]

salma3

14 | 7

15.48 ГБ

В этой теме нет новых непрочитанных сообщений. Последний настоящий мужчина / Last Man Standing [S05] [комедия, 2015-2016] WEB-DLRip, Dub [Paramount Comedy]

salma3

45 | 47

5.05 ГБ

В этой теме нет новых непрочитанных сообщений. Последний настоящий мужчина / Last Man Standing [S05] [комедия, 2015-2016] WEB-DLRip 720p, Dub [Paramount Comedy]

salma3

46 | 33

15.29 ГБ

В этой теме нет новых непрочитанных сообщений. Последний настоящий мужчина / Last Man Standing [S01] [комедия, 2011-2012] WEB-DLRip 720p, Dub [Paramount Comedy]

salma3

43 | 21

16.87 ГБ

В этой теме нет новых непрочитанных сообщений. Последний настоящий мужчина / Last Man Standing [06х01-09 из 22] (Последний настоящий мужчина, 2016) HDTV 720p | Jetvis Studio

marya111

7 | 17

4.73 ГБ


Начать новую тему Ответить на тему  [ 1 сообщение ] 




Для Мосгорсуда, Роскомнадзора и рекламодателей:: mosgorsud-torrent[собачка]yandex.ru