Торрент файл
скачать торрент магнет ссылка Добавлен: 08 дек 2014, 12:54
Размер: 5.85 ГБ
Сидеров: 8
Личеров: 5
Статус: (salma3)
Автор

СообщениеДобавлено: 08 дек 2014, 12:54 

Не в сети
Супермодератор
Аватара пользователя
Дата регистрации:
15 фев 2012, 16:44
Возраст: 28
Спасибо: 6643 / 2146
Сообщения: 45801
Друзья / Friends /

Год выпуска: 1998
Жанр: ситком
Режиссер: Гари Хэлворсон, Кевин Брайт, Майкл Лембек

В ролях: Дженнифер Энистон, Кортни Кокс, Лиза Кудроу, Мэтт ЛеБлан, Мэттью Перри, Дэвид Швиммер, Джеймс Майкл Тайлер, Эллиотт Гулд, Мэгги Вилер, Кристина Пиклз и др.

Описание:
Главные герои — шестеро друзей — Рейчел, Моника, Фиби, Джоуи, Чендлер и Росс. Три девушки и три парня, которые дружат, живут по соседству, вместе убивают время и противостоят жестокой реальности, делятся своими секретами и иногда очень сильно влюбляются.
Сериал признан одним из лучших комедийных сериалов в истории американского телевидения и стал одним из наиболее заметных проектов 1990-х годов. Сама постановка и творческая группа получили множество наград, в том числе шесть премий «Эмми» и премию «Золотой глобус».



Страна: США
Продолжительность: 00:24:00
Перевод: Профессиональный (многоголосый, закадровый) [РТР]

Файл
Качество: BDRip
Формат файла: AVI
Видео кодек: XviD
Аудио кодек: MP3
Видео: 720x400 (16/9), 23.976 fps, 1 229 Kbps (0.178 bit/pixel)
Аудио Rus: 48 kHz, 2 ch, ~128 kbps [РТР]
Аудио Eng: 48 kHz, 2 ch, ~128 kbps [Original]

Работа со звуком: PGor, Nez
Рип: Мосенька

Общее
Полное имя :Друзья (Сезон 4) РТР\Friends.s04e01.bdrip.avi
Формат : AVI
Формат/Информация : Audio Video Interleave
Размер файла : 250 Мбайт
Продолжительность : 22 м.
Общий поток : 1537 Кбит/сек
Программа кодирования : VirtualDubMod 1.5.10.3 | http://www.virtualdub-fr.org || (build 2550/release)
Библиотека кодирования : VirtualDubMod build 2550/release
Видео
Идентификатор : 0
Формат : MPEG-4 Visual
Профиль формата : Advanced Simple@L5
Параметр BVOP формата : 1
Параметр QPel формата : Нет
Параметр GMC формата : Без точки перехода
Параметр матрицы формата : Выборочная
Идентификатор кодека : XVID
Идентификатор кодека/Подсказка : XviD
Продолжительность : 22 м.
Битрейт : 1267 Кбит/сек
Ширина : 720 пикселей
Высота : 400 пикселей
Соотношение сторон : 16:9
Частота кадров : 23,976 кадра/сек
Цветовое пространство : YUV
Субдискретизация насыщенности : 4:2:0
Битовая глубина : 8 бит
Тип развёртки : Прогрессивная
Метод сжатия : С потерями
Бит/(Пиксели*Кадры) : 0.183
Размер потока : 206 Мбайт (82%)
Библиотека кодирования : XviD 63
Аудио #1
Идентификатор : 1
Формат : MPEG Audio
Версия формата : Version 1
Профиль формата : Layer 3
Режим : Joint stereo
Расширение режима : MS Stereo
Идентификатор кодека : 55
Идентификатор кодека/Подсказка : MP3
Продолжительность : 22 м.
Вид битрейта : Постоянный
Битрейт : 128 Кбит/сек
Каналы : 2 канала
Частота : 48,0 КГц
Метод сжатия : С потерями
Размер потока : 20,8 Мбайт (8%)
Выравнивание : Соединение по промежуткам
Продолжительность промежутка : 42 мс. (1,00 видеокадр)
Время предзагрузки промежутка : 504 мс.
Библиотека кодирования : LAME3.98r
Настройки программы : -m j -V 4 -q 0 -lowpass 17 -b 128
Аудио #2
Идентификатор : 2
Формат : MPEG Audio
Версия формата : Version 1
Профиль формата : Layer 3
Режим : Joint stereo
Расширение режима : MS Stereo
Идентификатор кодека : 55
Идентификатор кодека/Подсказка : MP3
Продолжительность : 22 м.
Вид битрейта : Постоянный
Битрейт : 128 Кбит/сек
Каналы : 2 канала
Частота : 48,0 КГц
Метод сжатия : С потерями
Размер потока : 20,8 Мбайт (8%)
Выравнивание : Соединение по промежуткам
Продолжительность промежутка : 42 мс. (1,00 видеокадр)
Время предзагрузки промежутка : 504 мс.




_________________
Проголосуй за трекер Открытый торрент трекер - RUS-MEDIA.ORG

Проголосуй Открытый торрент трекер - RUS-MEDIA.ORG



реклама партнёра


Вернуться к началу
 Профиль Отправить личное сообщение  
 
   Похожие торренты   Автор   Торрент   Размер 
В этой теме нет новых непрочитанных сообщений. Твои друзья и соседи / Your Friends & Neighbors [драма, комедия, 1998] DVDRip, Dvo

salma3

7 | 1

744.08 МБ

В этой теме нет новых непрочитанных сообщений. Друзья не оставляют друзей / Friends Don't Let Friends [ужасы, триллер, 2017] HDRip, Mvo

salma3

143 | 11

1.37 ГБ

В этой теме нет новых непрочитанных сообщений. Best Friends 5 / Лучшие Друзья 5 (2015) HD 1080p

Dile-1

11 | 10

5.55 ГБ

В этой теме нет новых непрочитанных сообщений. Друзья и любовники / Friends and Lovers (2017) WEBRip

salma3

74 | 9

1.37 ГБ

В этой теме нет новых непрочитанных сообщений. Анальные друзья / Anal Friends (2017) WEBRip

Dievas

87 | 15

1.47 ГБ

В этой теме нет новых непрочитанных сообщений. Best Friends 5 / Лучшие Друзья 5 (Filly Films) [2015., WEB-DL]

max77777

3 | 0

1.07 ГБ

В этой теме нет новых непрочитанных сообщений. Друзья в сексе / Private Gold 2: Friends in Sex (1996) DVDRip-AVC | Rus

salma3

20 | 4

2.05 ГБ


Начать новую тему Ответить на тему  [ 1 сообщение ] 




Для Мосгорсуда, Роскомнадзора и рекламодателей:: mosgorsud-torrent[собачка]yandex.ru