Торрент файл
скачать торрент магнет ссылка Добавлен: 08 дек 2014, 12:50
Размер: 6.16 ГБ
Сидеров: 11
Личеров: 7
Статус: (salma3)
Автор

СообщениеДобавлено: 08 дек 2014, 12:50 

Не в сети
Супермодератор
Аватара пользователя
Дата регистрации:
15 фев 2012, 16:44
Возраст: 28
Спасибо: 6928 / 2147
Сообщения: 52985
Друзья / Friends /

Год выпуска: 1997
Жанр: ситком
Режиссер: Гари Хэлворсон, Кевин Брайт, Майкл Лембек

В ролях: Дженнифер Энистон, Кортни Кокс, Лиза Кудроу, Мэтт ЛеБлан, Мэттью Перри, Дэвид Швиммер, Джеймс Майкл Тайлер, Эллиотт Гулд, Мэгги Вилер, Кристина Пиклз и др.

Описание:
Главные герои — шестеро друзей — Рейчел, Моника, Фиби, Джоуи, Чендлер и Росс. Три девушки и три парня, которые дружат, живут по соседству, вместе убивают время и противостоят жестокой реальности, делятся своими секретами и иногда очень сильно влюбляются.
Сериал признан одним из лучших комедийных сериалов в истории американского телевидения и стал одним из наиболее заметных проектов 1990-х годов. Сама постановка и творческая группа получили множество наград, в том числе шесть премий «Эмми» и премию «Золотой глобус».



Страна: США
Продолжительность: 00:24:00
Перевод: Профессиональный (многоголосый, закадровый) [РТР]

Файл
Качество: BDRip
Формат файла: AVI
Видео кодек: XviD
Аудио кодек: MP3
Видео: 720x400 (16:9), 23.976 fps, ~1200 kbps, ~0.18 bit/pixel
Аудио Rus: 48 kHz, 2 ch, ~128 kbps [РТР]
Аудио Eng: 48 kHz, 2 ch, ~128 kbps [Original]

Работа со звуком: PGor, Nez
Рип: Мосенька

General
Complete name : I:\Друзья (Сезон 3) РТР\Friends.s03e01.bdrip.avi
Format : AVI
Format/Info : Audio Video Interleave
File size : 252 MiB
Duration : 22mn 42s
Overall bit rate : 1 553 Kbps
Writing application : VirtualDubMod 1.5.10.3 | http://www.virtualdub-fr.org || (build 2550/release)
Writing library : VirtualDubMod build 2550/release
Video
ID : 0
Format : MPEG-4 Visual
Format profile : Advanced Simple@L5
Format settings, BVOP : 1
Format settings, QPel : No
Format settings, GMC : No warppoints
Format settings, Matrix : Custom
Codec ID : XVID
Codec ID/Hint : XviD
Duration : 22mn 42s
Bit rate : 1 283 Kbps
Width : 720 pixels
Height : 400 pixels
Display aspect ratio : 16:9
Frame rate : 23.976 fps
Color space : YUV
Chroma subsampling : 4:2:0
Bit depth : 8 bits
Scan type : Progressive
Compression mode : Lossy
Bits/(Pixel*Frame) : 0.186
Stream size : 208 MiB (83%)
Writing library : XviD 63
Audio #1
ID : 1
Format : MPEG Audio
Format version : Version 1
Format profile : Layer 3
Mode : Joint stereo
Mode extension : MS Stereo
Codec ID : 55
Codec ID/Hint : MP3
Duration : 22mn 42s
Bit rate mode : Constant
Bit rate : 128 Kbps
Channel(s) : 2 channels
Sampling rate : 48.0 KHz
Compression mode : Lossy
Stream size : 20.8 MiB (8%)
Alignment : Aligned on interleaves
Interleave, duration : 42 ms (1.00 video frame)
Interleave, preload duration : 504 ms
Writing library : LAME3.98r
Encoding settings : -m j -V 4 -q 0 -lowpass 17 -b 128
Audio #2
ID : 2
Format : MPEG Audio
Format version : Version 1
Format profile : Layer 3
Mode : Joint stereo
Mode extension : MS Stereo
Codec ID : 55
Codec ID/Hint : MP3
Duration : 22mn 42s
Bit rate mode : Constant
Bit rate : 128 Kbps
Channel(s) : 2 channels
Sampling rate : 48.0 KHz
Compression mode : Lossy
Stream size : 20.8 MiB (8%)
Alignment : Aligned on interleaves
Interleave, duration : 42 ms (1.00 video frame)
Interleave, preload duration : 504 ms




_________________
Проголосуй за трекер Открытый торрент трекер - RUS-MEDIA.ORG

Проголосуй Открытый торрент трекер - RUS-MEDIA.ORG



реклама партнёра


Вернуться к началу
 Профиль Отправить личное сообщение  
 
   Похожие торренты   Автор   Торрент   Размер 
В этой теме нет новых непрочитанных сообщений. Друзья не оставляют друзей / Friends Don't Let Friends [ужасы, триллер, 2017] HDRip, Mvo

salma3

119 | 10

1.37 ГБ

В этой теме нет новых непрочитанных сообщений. Просто друзья / Just Friends [Мелодрама, комедия, 2005] BDRip-AVC, Dub

salma3

0 | 0

2.31 ГБ

В этой теме нет новых непрочитанных сообщений. Best Friends 5 / Лучшие Друзья 5 (2015) HD 1080p

Dile-1

11 | 10

5.55 ГБ

В этой теме нет новых непрочитанных сообщений. Друзья и любовники / Friends and Lovers (2017) WEBRip

salma3

74 | 9

1.37 ГБ

В этой теме нет новых непрочитанных сообщений. Best Friends 5 / Лучшие Друзья 5 (Filly Films) [2015., WEB-DL]

max77777

3 | 0

1.07 ГБ

В этой теме нет новых непрочитанных сообщений. Анальные друзья / Anal Friends (2017) WEBRip

Dievas

87 | 16

1.47 ГБ

В этой теме нет новых непрочитанных сообщений. Лучшие друзья / Best Friends [комедия, мелодрама, 1982] DVDRip, Mvo

salma3

19 | 8

2.13 ГБ


Начать новую тему Ответить на тему  [ 1 сообщение ] 




Для Мосгорсуда, Роскомнадзора и рекламодателей:: mosgorsud-torrent[собачка]yandex.ru
cron