Торрент файл
скачать торрент магнет ссылка Добавлен: 05 дек 2014, 17:40
Размер: 5.85 ГБ
Сидеров: 24
Личеров: 10
Статус: (salma3)
Автор

СообщениеДобавлено: 05 дек 2014, 17:40 

Не в сети
Супермодератор
Аватара пользователя
Дата регистрации:
15 фев 2012, 16:44
Возраст: 27
Спасибо: 5143 / 2090
Сообщения: 17495
Друзья / Friends /

Год выпуска: 1996
Жанр: ситком
Режиссер: Гари Хэлворсон, Кевин Брайт, Майкл Лембек

В ролях: Дженнифер Энистон, Кортни Кокс, Лиза Кудроу, Мэтт ЛеБлан, Мэттью Перри, Дэвид Швиммер, Джеймс Майкл Тайлер, Эллиотт Гулд, Мэгги Вилер, Кристина Пиклз и др.

Описание:
Главные герои — шестеро друзей — Рейчел, Моника, Фиби, Джоуи, Чендлер и Росс. Три девушки и три парня, которые дружат, живут по соседству, вместе убивают время и противостоят жестокой реальности, делятся своими секретами и иногда очень сильно влюбляются.
Сериал признан одним из лучших комедийных сериалов в истории американского телевидения и стал одним из наиболее заметных проектов 1990-х годов. Сама постановка и творческая группа получили множество наград, в том числе шесть премий «Эмми» и премию «Золотой глобус».



Страна: США
Продолжительность: 00:24:00
Перевод: Профессиональный (многоголосый, закадровый) [РТР]

Файл
Качество: BDRip
Формат файла: AVI
Видео кодек: XviD
Аудио кодек: MP3
Видео: 720x400 (16:9), 23.976 fps, ~1200 kbps, ~0.18 bit/pixel
Аудио Rus: 48 kHz, 2 ch, ~128 kbps [РТР]
Аудио Eng: 48 kHz, 2 ch, ~128 kbps [Original]

Работа со звуком: PGor, Nez
Рип: Мосенька

Общее
Полное имя : I:\РАЗДАЧИ НА TORRENTS.RU\Друзья (Сезон 2) РТР\Friends.s02e01.bdrip.avi
Формат : AVI
Формат/Информация : Audio Video Interleave
Размер файла : 249 Мбайт
Продолжительность : 22 м.
Общий поток : 1566 Кбит/сек
Программа кодирования : VirtualDubMod 1.5.10.3 | http://www.virtualdub-fr.org || (build 2550/release)
Библиотека кодирования : VirtualDubMod build 2550/release
Видео
Идентификатор : 0
Формат : MPEG-4 Visual
Профиль формата : Advanced Simple@L5
Параметр BVOP формата : 1
Параметр QPel формата : Нет
Параметр GMC формата : Без точки перехода
Параметр матрицы формата : Выборочная
Идентификатор кодека : XVID
Идентификатор кодека/Подсказка : XviD
Продолжительность : 22 м.
Битрейт : 1296 Кбит/сек
Ширина : 720 пикселей
Высота : 400 пикселей
Соотношение сторон : 16:9
Частота кадров : 23,976 кадра/сек
Цветовое пространство : YUV
Субдискретизация насыщенности : 4:2:0
Битовая глубина : 8 бит
Тип развёртки : Прогрессивная
Метод сжатия : С потерями
Бит/(Пиксели*Кадры) : 0.188
Размер потока : 206 Мбайт (83%)
Библиотека кодирования : XviD 63
Аудио #1
Идентификатор : 1
Формат : MPEG Audio
Версия формата : Version 1
Профиль формата : Layer 3
Режим : Joint stereo
Расширение режима : MS Stereo
Идентификатор кодека : 55
Идентификатор кодека/Подсказка : MP3
Продолжительность : 22 м.
Вид битрейта : Постоянный
Битрейт : 128 Кбит/сек
Каналы : 2 канала
Частота : 48,0 КГц
Метод сжатия : С потерями
Размер потока : 20,3 Мбайт (8%)
Выравнивание : Соединение по промежуткам
Продолжительность промежутка : 42 мс. (1,00 видеокадр)
Время предзагрузки промежутка : 504 мс.
Библиотека кодирования : LAME3.98r
Настройки программы : -m j -V 4 -q 0 -lowpass 17 -b 128
Аудио #2
Идентификатор : 2
Формат : MPEG Audio
Версия формата : Version 1
Профиль формата : Layer 3
Режим : Joint stereo
Идентификатор кодека : 55
Идентификатор кодека/Подсказка : MP3
Продолжительность : 22 м.
Вид битрейта : Постоянный
Битрейт : 128 Кбит/сек
Каналы : 2 канала
Частота : 48,0 КГц
Метод сжатия : С потерями
Размер потока : 20,3 Мбайт (8%)
Выравнивание : Соединение по промежуткам
Продолжительность промежутка : 42 мс. (1,00 видеокадр)
Время предзагрузки промежутка : 504 мс.




_________________



реклама партнёра


Вернуться к началу
 Профиль Отправить личное сообщение  
 
   Похожие торренты   Автор   Торрент   Размер 
В этой теме нет новых непрочитанных сообщений. Друзья / Friends / 5 сезон: 1-24 серии из 24 [ситком, 1999] BDRip, Mvo [РТР]

salma3

21 | 9

5.85 ГБ

В этой теме нет новых непрочитанных сообщений. Друзья / Friends / 4 сезон: 1-24 серии из 24 [ситком, 1998] BDRip, Mvo [РТР]

salma3

23 | 9

5.85 ГБ

В этой теме нет новых непрочитанных сообщений. Друзья / Friends / 3 сезон: 1-25 серии из 25 [ситком, 1997] BDRip, Mvo [РТР]

salma3

24 | 11

6.16 ГБ

В этой теме нет новых непрочитанных сообщений. Друзья / Friends / 1 сезон: 1-24 серии из 24 [ситком, 1994-1995] BDRip, Mvo [РТР]

salma3

25 | 11

5.84 ГБ

В этой теме нет новых непрочитанных сообщений. Друзья / Friends / 1-10 сезоны 1-236 серии из 236 [комедия, мелодрама , 1994] BDRip 720p, Mvo [СТС-РТР]

salma3

39 | 66

248.77 ГБ

В этой теме нет новых непрочитанных сообщений. Просто друзья / Just Friends [Комедия, мелодрама, 2005] BDRip, Dub+Sub

salma3

0 | 2

1.46 ГБ

В этой теме нет новых непрочитанных сообщений. Просто друзья ? / Just Friends ? (2014) DVDRip

friizze

208 | 492

1.17 ГБ


Начать новую тему Ответить на тему  [ 1 сообщение ] 




Для Мосгорсуда, Роскомнадзора и рекламодателей:: mosgorsud-torrent[собачка]yandex.ru