Торрент файл
скачать торрент магнет ссылка Добавлен: 11 дек 2014, 12:29
Размер: 10.75 ГБ
Сидеров: 2098
Личеров: 578
Статус: (Dracon)
Автор

СообщениеДобавлено: 03 дек 2014, 11:15 

Не в сети
Зам. Админа
Аватара пользователя
Дата регистрации:
02 дек 2010, 12:39
Спасибо: 12623 / 214
Сообщения: 28012
Год выхода: 2014
Жанр: Мелодрама
Режиссер: Александр Замятин
В ролях: Марина Митрофанова, Евгений Шириков, Кирилл Жандаров, Агата Муцениеце, Екатерина Дубакина, Любава Грешнова, Наталья Чернявская, Владислав Ветров, Мартиньш Вилсонс, Валерий Афанасьев, Елена Цыплакова, Владимир Стержаков, Алёна Яковлева, Татьяна Орлова, Алексей Фатеев, Александр Силаев, Андрей Лебедев, Анжелика Кошевая, Алёна Галлиардт, Андрей Аверьянов, Денис Ткачёв, Роман Курцын, Михаил Куряев, Игорь Скрипко, Дмитрий Гудочкин, Анастасия Исакова

О фильме: Москва, 1988 год. На дне рождения своей подруги Ирина - "студентка, комсомолка и просто красавица" - знакомится с Юрой. Молодые люди влюбляются друг в друга с первого взгляда. Однако на пути их романа встают бывшие друзья: подруга Иры – капризная дочь влиятельных родителей Жанна Верхоланцева - испытывает сильные чувства к Юре, а ее брат и лучший друг Юры Саша Верхоланцев пылает страстью к Ирине.Чтобы устранить соперника, Саша просит своего отца выслать Юру из Москвы. В итоге Юра попадает в Афганистан. А вскоре Жанна становится виновницей автомобильной аварии, в которой серьезно страдает мать Ирины.Единственный шанс спасти мать - найти деньги на сложную и опасную операцию. Однако собрать такую огромную сумму Ирине и ее отцу оказывается не под силу. У Ирины остается все меньше времени, а неприятности, проблемы и долги накапливаются как снежный ком. Сложным положением девушки решает воспользоваться оскорбленный отказом Саша...


Выпущено: Россия
Продолжительность: 6 x ~ 00:45:00
Перевод: Не требуется

Качество: HDTVRip
Видео: XviD, 720x400 (16:9), 25.000 fps, 1 491 Kbps (0.207 bit/pixel)
Аудио: AC-3, 48.0 KHz, 2 ch, 192 Kbps, CBR




General
Complete name : /Красивая.жизнь.2014.HDTVRip.RG.Russkie.serialy.&.Files-x/01.Красивая.жизнь.2014.HDTVRip.RG.Russkie.serialy.&.Files-x.avi
Format : AVI
Format/Info : Audio Video Interleave
File size : 550 MiB
Duration : 45mn 47s
Overall bit rate : 1 679 Kbps
Writing application : VirtualDubMod 1.5.10.3 | http://www.virtualdub-fr.org || (build 2550/release)
Writing library : VirtualDubMod build 2550/release

Video
ID : 0
Format : MPEG-4 Visual
Format profile : Advanced Simple@L5
Format settings, BVOP : 2
Format settings, QPel : No
Format settings, GMC : No warppoints
Format settings, Matrix : Custom
Codec ID : XVID
Codec ID/Hint : XviD
Duration : 45mn 47s
Source duration : 31mn 57s
Bit rate : 1 491 Kbps
Width : 720 pixels
Height : 400 pixels
Display aspect ratio : 16:9
Frame rate : 25.000 fps
Color space : YUV
Chroma subsampling : 4:2:0
Bit depth : 8 bits
Scan type : Progressive
Compression mode : Lossy
Bits/(Pixel*Frame) : 0.207
Stream size : 341 MiB (62%)
Writing library : XviD 73

Audio
ID : 1
Format : AC-3
Format/Info : Audio Coding 3
Mode extension : CM (complete main)
Format settings, Endianness : Big
Codec ID : 2000
Duration : 45mn 47s
Source duration : 31mn 58s
Bit rate mode : Constant
Bit rate : 192 Kbps
Channel(s) : 2 channels
Channel positions : Front: L R
Sampling rate : 48.0 KHz
Bit depth : 16 bits
Compression mode : Lossy
Stream size : 43.9 MiB (8%)
Alignment : Split accross interleaves
Interleave, duration : 40 ms (1.00 video frame)
Interleave, preload duration : 500 ms


Релиз от:




реклама партнёра


Вернуться к началу
 Профиль  
 
   Похожие торренты   Автор   Торрент   Размер 
В этой теме нет новых непрочитанных сообщений. Красивая жизнь [01-20 из 20] [мелодрама, 2014] SATRip

Dracon

296 | 55

11.67 ГБ

В этой теме нет новых непрочитанных сообщений. Красивая жизнь [01-20 из 20] [Мелодрама, 2014] HDTV 1080i

Dracon

62 | 32

52 ГБ

В этой теме нет новых непрочитанных сообщений. Красивая жизнь / La belle vie (Жан Денизо / Jean Denizot) [2013г., Франция, приключенческая драма, мелодрама, DVB] Sub

Alfredovich

2 | 2

2.34 ГБ

В этой теме нет новых непрочитанных сообщений. Слишком красивая жена [01-02 из 02] (Сергей Мезенцев) [Мелодрама, 2013] HDTVRip 720p

Dracon

72 | 21

7.39 ГБ

В этой теме нет новых непрочитанных сообщений. Красивая жизнь / Taking Care of Business [комедия, 1990] WEB-DL 720p, Mvo+Dub+2Avo

salma3

22 | 5

3.84 ГБ

В этой теме нет новых непрочитанных сообщений. Третья жизнь Дарьи Кирилловны [01-02 из 02] [Мелодрама, 2016] HDTVRip 720p

salma3

128 | 43

4.59 ГБ

В этой теме нет новых непрочитанных сообщений. Жизнь, по слухам, одна [01-04 из 04] [Детектив, мелодрама, экранизация, 2017] HDTVRip

salma3

188 | 38

1.46 ГБ


СообщениеДобавлено: 10 дек 2014, 12:39 

Не в сети
Зам. Админа
Аватара пользователя
Дата регистрации:
02 дек 2010, 12:39
Спасибо: 12623 / 214
Сообщения: 28012
Dracon писал(а):
Re: Красивая жизнь [01-17 из 20] [мелодрама, 2014] HDTVRip


Вернуться к началу
 Профиль  
 
Начать новую тему Ответить на тему  [ Сообщений: 2 ] 




Для Мосгорсуда, Роскомнадзора и рекламодателей:: mosgorsud-torrent[собачка]yandex.ru