Торрент файл
скачать торрент магнет ссылка Добавлен: 28 ноя 2014, 21:40
Размер: 5.58 ГБ
Сидеров: 571
Личеров: 110
Статус: (Dracon)
Автор

СообщениеДобавлено: 28 ноя 2014, 21:40 

Не в сети
Зам. Админа
Аватара пользователя
Дата регистрации:
02 дек 2010, 12:39
Спасибо: 12461 / 214
Сообщения: 27968
Год выхода: 2014
Жанр: Драма, мелодрама, история
Режиссер: Александр Баранов, Рамиль Сабитов
В ролях: Марина Александрова, Владимир Меньшов, Константин Лавроненко, Александр Лазарев мл., Юлия Ауг, Александр Яценко, Риналь Мухаметов, Иван Добронравов, Николай Козак, Светлана Корчагина
О фильме:
1745. Царствующая императрица Елизавета Петровна бесплодна. Единственный наследник — ее слабоумный племянник Петр III. Елизавета не может допустить, чтобы Петр взошел на престол, поэтому решает женить цесаревича, дождаться рождения сына, а потом забрать мальчика и самой воспитать его настоящим русским императором. В Петербург съезжаются невесты. Среди них прелестная, Фике — юная принцесса София Фредерика из обедневшей ветви прусских королей. Девушка, мечтая о сказке, отправилась в далекую загадочную Россию за большой любовью и счастьем. Однако здесь же суждено столкнуться с заговорами придворных и шпионов, безжалостными дворцовыми интригами, жестоким расчетом императрицы, и : безразличием будущего супруга. Ей, а потом и ее детям грозит смертельная опасность. Чтобы отстоять свою мечту о любви Екатерине придется избавиться от власти людей, которые пытаются уничтожить ее. Жребий брошен. Екатерина начинает борьбу за трон. Но будет ли она счастлива?

Страна: Россия, "АМЕДИА"
Продолжительность: 9 x ~ 00:45:00
Перевод: Перевод не требуется

Качество: HDTVRip
Видео: XviD, ~ 1550 Кбит/с, 720x400
Звук: AC3, 2 ch, 192 Кбит/с

General
Complete name : Y:раздачиEkaterina..2014.HDTVRip.RG.Russkie.serialy.&.Files-x2.Ekaterina..2014.HDTVRip.RG.Russkie.serialy.&.Files-x.avi
Format : AVI
Format/Info : Audio Video Interleave
File size : 798 MiB
Duration : 1h 2mn
Overall bit rate : 1 797 Kbps
Writing application : VirtualDubMod 1.5.10.3 | http://www.virtualdub-fr.org || (build 2550/release)
Writing library : VirtualDubMod build 2550/release

Video
ID : 0
Format : MPEG-4 Visual
Format profile : Advanced Simple@L5
Format settings, BVOP : 2
Format settings, QPel : No
Format settings, GMC : No warppoints
Format settings, Matrix : Custom
Codec ID : XVID
Codec ID/Hint : XviD
Duration : 1h 2mn
Bit rate : 1 595 Kbps
Width : 720 pixels
Height : 400 pixels
Display aspect ratio : 16:9
Frame rate : 25.000 fps
Color space : YUV
Chroma subsampling : 4:2:0
Bit depth : 8 bits
Scan type : Progressive
Compression mode : Lossy
Bits/(Pixel*Frame) : 0.222
Stream size : 708 MiB (89%)
Writing library : XviD 73

Audio
ID : 1
Format : AC-3
Format/Info : Audio Coding 3
Mode extension : CM (complete main)
Format settings, Endianness : Big
Codec ID : 2000
Duration : 1h 2mn
Bit rate mode : Constant
Bit rate : 192 Kbps
Channel(s) : 2 channels
Channel positions : Front: L R
Sampling rate : 48.0 KHz
Bit depth : 16 bits
Compression mode : Lossy
Stream size : 85.2 MiB (11%)
Alignment : Split accross interleaves
Interleave, duration : 40 ms (1.00 video frame)
Interleave, preload duratio : 500 ms


Внимание! Раздача ведётся путём добавления новых серий
Внимание! Раздача ведётся путём добавления новых серий; при каждом добавлении создётся новый торрент.
Чтобы начать докачку новой серии, пользователям необходимо сделать следующее:
1) остановить скачивание
2) удалить старый торрент у себя из клиента (старые серии удалять не надо)
3) скачать новый торрент и запустить его у себя в клиенте вместо старого, при этом указать клиенту путь в старую папку куда и должно происходить скачивание новых серий.
Ваш клиент при этом должен произвести хеширование (проверку) старой папки (если не производит сам - помогите ему сделать это), и будет докачивать только те серии которых у вас ещё нет. Старые серии при этом не удаляются, а продолжают раздаваться!
Eсли вы уже удалили старые серии, то предотвратить повторную закачку старых серий можно, отжав галочку в соответствовавших местах при запуске нового торрента.










реклама партнёра


Вернуться к началу
 Профиль  
 
   Похожие торренты   Автор   Торрент   Размер 
В этой теме нет новых непрочитанных сообщений. Екатерина [01-09 из 09] [Драма, мелодрама, история, 2014] HDTVRip 720p

Dracon

548 | 88

14 ГБ

В этой теме нет новых непрочитанных сообщений. Екатерина [01-12 из 12] [Драма, мелодрама, история, 2014] WEB-DL 1080p

Dracon

186 | 37

12.99 ГБ

В этой теме нет новых непрочитанных сообщений. Екатерина [01-09 из 09] [Драма, мелодрама, история, 2014] HDTV 1080i

Dracon

312 | 95

25.19 ГБ

В этой теме нет новых непрочитанных сообщений. Берцы (Екатерина Шагалова) [драма, мелодрама, 2014] HDTVRip

Марик

403 | 16

1.46 ГБ

В этой теме нет новых непрочитанных сообщений. Юрий Андропов: Истина, страшней которой нету (Екатерина Кругликова) [2014, Документальный, история, политика, биография, HDTVRip]

Nickolas3435

61 | 2

579.59 МБ

В этой теме нет новых непрочитанных сообщений. Екатерина [1-11 серия из 11] [Драма, Мелодрама, Исторический, 2014] SatRip

Dracon

302 | 51

5.82 ГБ

В этой теме нет новых непрочитанных сообщений. Непридуманная жизнь (Екатерина) [01-16 из 16] (Фуад Шабанов) [Мелодрама, драма, биография, 2015] HDTVRip

Dracon

259 | 63

8.59 ГБ


Начать новую тему Ответить на тему  [ 1 сообщение ] 




Для Мосгорсуда, Роскомнадзора и рекламодателей:: mosgorsud-torrent[собачка]yandex.ru