Торрент файл
скачать торрент магнет ссылка Добавлен: 14 ноя 2014, 11:23
Размер: 6.45 ГБ
Сидеров: 289
Личеров: 89
Статус: (Dracon)
Автор

СообщениеДобавлено: 03 ноя 2014, 15:49 

Не в сети
Зам. Админа
Аватара пользователя
Дата регистрации:
02 дек 2010, 12:39
Спасибо: 12461 / 214
Сообщения: 27968
Светофор

Год выхода: 2014
Жанр: Ситком, комедия, ремейк
Режиссёр: Роман Фокин
В ролях: Ольга Медынич, Джемал Тетруашвили, Дмитрий Миллер, Александр Макогон, Ирина Низина, Сергей Лобынцев, Александр Никольский, Евгения Каверау, Антонина Комиссарова

О фильме: Когда тебе немного за тридцать, ты вдруг замечаешь, что твоя жизнь похожа на сигналы светофора. Если ты холостяк, для тебя всегда горит зеленый свет, всё вокруг в движении, и ты свободно едешь. Куда хочешь. И с кем хочешь. Если ты встречаешься с девушкой, тебе уже мигает жёлтый свет. С одной стороны, ты ещё в движении, а с другой, уже готовишься остановиться. А если ты женат - ты встал на красном. Всё изменилось: ты уже не можешь думать только о себе. Их трое. Им немного за тридцать. Они лучшие друзья, которые всегда придут друг другу на помощь. Вернее, почти всегда. Ведь у каждого из них в жизни есть ещё нечто, чему нужно уделять очень много внимания. Это - любовь. Со времён, когда у каждого героя был свой цвет - красный, жёлтый и зелёный, - многое поменялось...



Выпущено: Yellow, Black&White, Россия
Продолжительность: 14 x ~ 00:25:00
Перевод: Не требуется

Качество: WEB-DLRip [Исходник: WEB-DL (1080p)]
Видео: XviD, ~ 1737 Кбит/с, 704x400, 25 кадр/с
Аудио: Русский, MP3, 48000 Гц, 128 Кбит/с, 2 канала (Стерео)



General
Complete name : Svetofor.s07e09.WEB-DLRip.avi
Format : AVI
Format/Info : Audio Video Interleave
File size : 330 MiB
Duration : 24mn 36s
Overall bit rate : 1 875 Kbps
Writing application : VirtualDubMod 1.5.10.3 | http://www.virtualdub-fr.org || (build 2550/release)
Writing library : VirtualDubMod build 2550/release

Video
ID : 0
Format : MPEG-4 Visual
Format profile : Advanced Simple@L5
Format settings, BVOP : 1
Format settings, QPel : No
Format settings, GMC : No warppoints
Format settings, Matrix : Custom
Codec ID : XVID
Codec ID/Hint : XviD
Duration : 24mn 36s
Bit rate : 1 737 Kbps
Width : 704 pixels
Height : 400 pixels
Display aspect ratio : 16:9
Frame rate : 25.000 fps
Color space : YUV
Chroma subsampling : 4:2:0
Bit depth : 8 bits
Scan type : Progressive
Compression mode : Lossy
Bits/(Pixel*Frame) : 0.247
Stream size : 306 MiB (93%)
Writing library : XviD 73

Audio
ID : 1
Format : MPEG Audio
Format version : Version 1
Format profile : Layer 3
Codec ID : 55
Codec ID/Hint : MP3
Duration : 24mn 36s
Bit rate mode : Constant
Bit rate : 128 Kbps
Channel(s) : 2 channels
Sampling rate : 48.0 KHz
Compression mode : Lossy
Stream size : 22.5 MiB (7%)
Alignment : Aligned on interleaves
Interleave, duration : 40 ms (1.00 video frame)
Interleave, preload duration : 504 ms
Writing library : LAME3.99r
Encoding settings : -m s -V 4 -q 0 -lowpass 17 -b 128









реклама партнёра


Вернуться к началу
 Профиль  
 
   Похожие торренты   Автор   Торрент   Размер 
В этой теме нет новых непрочитанных сообщений. Светофор [09x01 из 20] [Ситком, комедия, ремейк, 2016] WEB-DLRip

marya111

13 | 0

349.66 МБ

В этой теме нет новых непрочитанных сообщений. Бесстыжие / Shameless (US) [07x01-08 из 12] ( Драма, комедия, ремейк, 2016) HDTVRip | IdeaFilm

marya111

43 | 140

5.78 ГБ

В этой теме нет новых непрочитанных сообщений. Светофор [07х01-20 из 20] [Ситком, 2014] WEB-DL 720p

Dracon

123 | 42

9.16 ГБ

В этой теме нет новых непрочитанных сообщений. Светофор [Сезон 7, серия 1-20 из 20] [Ситком, 2014] SATRip

Dracon

1 | 3

6.35 ГБ

В этой теме нет новых непрочитанных сообщений. Сыны Анархии / Sons of Anarchy [07x01-11 из 13] (Гвинет Хордер-Пэйтон, Стефен Т. Кэй, Гай Ферленд) [2014, Драма, криминал, WEB-DLRip | Amedia]

Nickolas3435

34 | 171

8.64 ГБ

В этой теме нет новых непрочитанных сообщений. Сыны Анархии / Sons of Anarchy [07x01-03 из 13] (Гвинет Хордер-Пэйтон, Стефен Т. Кэй, Гай Ферленд) [2014, Драма, криминал, WEB-DLRip | Amedia]

Nickolas3435

20 | 61

2.34 ГБ

В этой теме нет новых непрочитанных сообщений. Сыны Анархии / Sons of Anarchy [07x01-12 из 13] (Гвинет Хордер-Пэйтон, Стефен Т. Кэй, Гай Ферленд) [2014, Драма, криминал, WEB-DLRip | Amedia]

Nickolas3435

43 | 170

9.68 ГБ


Начать новую тему Ответить на тему  [ 1 сообщение ] 




Для Мосгорсуда, Роскомнадзора и рекламодателей:: mosgorsud-torrent[собачка]yandex.ru