Торрент файл
скачать торрент магнет ссылка Добавлен: 25 окт 2014, 12:14
Размер: 1.81 ГБ
Сидеров: 9
Личеров: 2
Статус: (salma3)
Автор

СообщениеДобавлено: 25 окт 2014, 12:14 

Не в сети
Супермодератор
Аватара пользователя
Дата регистрации:
15 фев 2012, 16:44
Возраст: 28
Спасибо: 6577 / 2142
Сообщения: 43863
Новые приключения старой Кристин / The New Adventures of Old Christine

Год выхода: 2008
Жанр: комедия
Режиссер: Энди Экерман

В ролях: Джулия Луис-Дрейфус, Кларк Грегг, Хамиш Линклэйтер, Тревор Ганьон, Эмили Рутерферд, Трисиа О’Келли, Алекс Кэпп Хорнер, Ванда Сайкес, Лили Гофф, Марисса Бланчард и др.

Описание:
Кристин — разведённая работающая мать, которая через силы превозмогала стрессы, связанные со служебными обязанностями и семьёй, пока заново не восстановила замечательные отношения со своим бывшим мужем по имени Ричард. Стресс героям и смех зрителям — гарантированы!



Страна: США
Продолжительность: 00:22:00
Перевод: Профессиональный (многоголосый закадровый) [ViruseProject]

Файл
Качество: DVDRip
Формат файла: AVI
Видео кодек: XviD
Аудио кодек: MP3
Видео: 624x352 (1.77:1), 23.976 fps, XviD build 50 ~968 kbps avg, 0.18 bit/pixel
Аудио: 48 kHz, MPEG Layer 3, 2 ch, ~192.00 kbps avg

D:\ОЗВУЧКА\СЕРИАЛЫ\The.New.Adventures.of.Old.Christine.S03.ViruseProject\The.New.Adventures.of.Old.Christine.S03.ViruseProject\The.New.Adventures.of.Old.Christine.S03E01.ViruseProject.avi
General
Complete name : D:\ОЗВУЧКА\СЕРИАЛЫ\The.New.Adventures.of.Old.Christine.S03.ViruseProject\The.New.Adventures.of.Old.Christine.S03.ViruseProject\The.New.Adventures.of.Old.Christine.S03E01.ViruseProject.avi
Format : AVI
Format/Info : Audio Video Interleave
File size : 186 MiB
Duration : 22mn 11s
Overall bit rate : 1 170 Kbps
Writing application : VirtualDubMod 1.5.10.2 (build 2540/release)
Writing library : VirtualDubMod build 2540/release
Video #0
ID : 0
Format : MPEG-4 Visual
Format profile : Advanced Simple@L5
Format settings, BVOP : 2
Format settings, QPel : No
Format settings, GMC : No warppoints
Format settings, Matrix : Default (H.263)
Codec ID : DX50
Codec ID/Hint : DivX 5
Duration : 22mn 11s
Bit rate : 968 Kbps
Width : 624 pixels
Height : 352 pixels
Display aspect ratio : 16:9
Frame rate : 23.976 fps
Color space : YUV
Chroma subsampling : 4:2:0
Bit depth : 8 bits
Scan type : Progressive
Compression mode : Lossy
Bits/(Pixel*Frame) : 0.184
Stream size : 154 MiB (83%)
Writing library : XviD 1.3.0.dev55
Audio #1
ID : 1
Format : MPEG Audio
Format version : Version 1
Format profile : Layer 3
Codec ID : 55
Codec ID/Hint : MP3
Duration : 22mn 11s
Bit rate mode : Constant
Bit rate : 192 Kbps
Channel count : 2 channels
Sampling rate : 48.0 KHz
Compression mode : Lossy
Stream size : 30.5 MiB (16%)
Alignment : Split accross interleaves
Interleave, duration : 42 ms (1.00 video frame)
Interleave, preload duration : 500 ms

Релиз:


_________________
Проголосуй за трекер Открытый торрент трекер - RUS-MEDIA.ORG

Проголосуй Открытый торрент трекер - RUS-MEDIA.ORG



реклама партнёра


Вернуться к началу
 Профиль Отправить личное сообщение  
 
   Похожие торренты   Автор   Торрент   Размер 
В этой теме нет новых непрочитанных сообщений. Посредник / The Middleman / 1 сезон 1-12 серии из 12 [фантастика, драма, комедия, 2008] WEB-DLRip, Mvo [ViruseProject]

salma3

21 | 6

7.77 ГБ

В этой теме нет новых непрочитанных сообщений. Кристин / Christine [драма, биография, 2016] HDRip, Mvo

salma3

156 | 68

1.37 ГБ

В этой теме нет новых непрочитанных сообщений. Кристин / Christine [драма, биография, 2016] WEBDLRip, Mvo

salma3

50 | 6

2.05 ГБ

В этой теме нет новых непрочитанных сообщений. Фрейзер / Frasier / 9 сезон 1-24 серии из 24 [комедия, 2001-2002] DVDRip, Dvo [ViruseProject]

salma3

1 | 3

4.14 ГБ

В этой теме нет новых непрочитанных сообщений. Кристин / Christine [драма, биография, 2016] BDRip 1080p, Mvo

salma3

70 | 29

8.83 ГБ

В этой теме нет новых непрочитанных сообщений. Кристин / Christine [драма, биография, 2016] BDRip 720p, Mvo

salma3

107 | 49

4.74 ГБ

В этой теме нет новых непрочитанных сообщений. Новые приключения Винни Пуха / The New Adventures of Winnie the Pooh [S01-04] [мультфильм, фэнтези, комедия, 1988-1991] WEB-DLRip, Dub

salma3

2 | 6

16.75 ГБ


Начать новую тему Ответить на тему  [ 1 сообщение ] 




Для Мосгорсуда, Роскомнадзора и рекламодателей:: mosgorsud-torrent[собачка]yandex.ru