Торрент файл
скачать торрент магнет ссылка Добавлен: 25 окт 2014, 12:03
Размер: 2.34 ГБ
Сидеров: 14
Личеров: 4
Статус: (salma3)
Автор

СообщениеДобавлено: 25 окт 2014, 12:03 

Не в сети
Супермодератор
Аватара пользователя
Дата регистрации:
15 фев 2012, 16:44
Возраст: 27
Спасибо: 5121 / 2089
Сообщения: 17273
Новые приключения старой Кристин / The New Adventures of Old Christine

Год выхода: 2006
Жанр: комедия
Режиссер: Энди Экерман

В ролях: Джулия Луис-Дрейфус, Кларк Грегг, Хамиш Линклэйтер, Тревор Ганьон, Эмили Рутерферд, Трисиа О’Келли, Алекс Кэпп Хорнер, Ванда Сайкес, Лили Гофф, Марисса Бланчард и др.

Описание:
Кристин — разведённая работающая мать, которая через силы превозмогала стрессы, связанные со служебными обязанностями и семьёй, пока заново не восстановила замечательные отношения со своим бывшим мужем по имени Ричард. Стресс героям и смех зрителям — гарантированы!



Страна: США
Продолжительность: 00:22:00
Перевод: Профессиональный (многоголосый закадровый) [ViruseProject]

Файл
Качество: DVDRip
Формат файла: AVI
Видео кодек: XviD
Аудио кодек: MP3
Видео: 624x352 (1.77:1), 23.976 fps, XviD build 50 ~957 kbps avg, 0.18 bit/pixel
Аудио: 48 kHz, MPEG Layer 3, 2 ch, ~192.00 kbps avg

X:\ОЗВУЧКА\СЕРИАЛЫ\The.New.Adventures.of.Old.Christine.S01.ViruseProject\The.New.Adventures.of.Old.Christine.S01.ViruseProject\The.New.Adventures.of.Old.Christine.S01E01.ViruseProject.avi
General
Complete name : X:\ОЗВУЧКА\СЕРИАЛЫ\The.New.Adventures.of.Old.Christine.S01.ViruseProject\The.New.Adventures.of.Old.Christine.S01.ViruseProject\The.New.Adventures.of.Old.Christine.S01E01.ViruseProject.avi
Format : AVI
Format/Info : Audio Video Interleave
File size : 184 MiB
Duration : 22mn 10s
Overall bit rate : 1 159 Kbps
Writing application : VirtualDubMod 1.5.10.2 (build 2540/release)
Writing library : VirtualDubMod build 2540/release
Video #0
ID : 0
Format : MPEG-4 Visual
Format profile : Advanced Simple@L5
Format settings, BVOP : 1
Format settings, QPel : No
Format settings, GMC : No warppoints
Format settings, Matrix : Default (MPEG)
Codec ID : DX50
Codec ID/Hint : DivX 5
Duration : 22mn 10s
Bit rate : 958 Kbps
Width : 624 pixels
Height : 352 pixels
Display aspect ratio : 16:9
Frame rate : 23.976 fps
Color space : YUV
Chroma subsampling : 4:2:0
Bit depth : 8 bits
Scan type : Progressive
Compression mode : Lossy
Bits/(Pixel*Frame) : 0.182
Stream size : 152 MiB (83%)
Writing library : XviD 1.1.2 (UTC 2006-11-01)
Audio #1
ID : 1
Format : MPEG Audio
Format version : Version 1
Format profile : Layer 3
Codec ID : 55
Codec ID/Hint : MP3
Duration : 22mn 10s
Bit rate mode : Constant
Bit rate : 192 Kbps
Channel(s) : 2 channels
Sampling rate : 48.0 KHz
Compression mode : Lossy
Stream size : 30.4 MiB (17%)
Alignment : Split accross interleaves
Interleave, duration : 42 ms (1.00 video frame)
Interleave, preload duration : 500 ms

Релиз:


_________________



реклама партнёра


Вернуться к началу
 Профиль Отправить личное сообщение  
 
   Похожие торренты   Автор   Торрент   Размер 
В этой теме нет новых непрочитанных сообщений. Новые приключения старой Кристин / The New Adventures of Old Christine / 2 сезон 1-22 серии из 22 [комедия, 2006-2007] DVDRip, Mvo [ViruseProject]

salma3

6 | 4

4 ГБ

В этой теме нет новых непрочитанных сообщений. Новые приключения старой Кристин / The New Adventures of Old Christine / 3 сезон 1-10 серии из 10 [комедия, 2008] DVDRip, Mvo [ViruseProject]

salma3

9 | 2

1.81 ГБ

В этой теме нет новых непрочитанных сообщений. Новые приключения старой Кристин / The New Adventures of Old Christine / 4 сезон 1-22 серии из 22 [комедия, 2008-2009] DVDRip, Mvo [ViruseProject]

salma3

15 | 4

3.97 ГБ

В этой теме нет новых непрочитанных сообщений. Фрейзер / Frasier / 5 сезон 1-24 серии из 24 [комедия, 1997-1998] DVDRip, Mvo [ViruseProject]

salma3

20 | 9

4.13 ГБ

В этой теме нет новых непрочитанных сообщений. Фрейзер / Frasier / 9 сезон 1-24 серии из 24 [комедия, 2001-2002] DVDRip, Dvo [ViruseProject]

salma3

1 | 3

4.14 ГБ

В этой теме нет новых непрочитанных сообщений. Фрейзер / Frasier / 6 сезон 1-24 серии из 24 [комедия, 1998-1999] DVDRip, Mvo [ViruseProject]

salma3

0 | 2

4.13 ГБ

В этой теме нет новых непрочитанных сообщений. Фрейзер / Frasier / 7 сезон 1-24 серии из 24 [комедия, 1999-2000] DVDRip, Mvo [ViruseProject]

salma3

0 | 2

4.11 ГБ


Начать новую тему Ответить на тему  [ 1 сообщение ] 




Для Мосгорсуда, Роскомнадзора и рекламодателей:: mosgorsud-torrent[собачка]yandex.ru