Торрент файл
скачать торрент магнет ссылка Добавлен: 11 окт 2014, 21:00
Размер: 10.08 ГБ
Сидеров: 2
Личеров: 5
Статус: (salma3)
Автор

СообщениеДобавлено: 11 окт 2014, 21:00 

В сети
Супермодератор
Аватара пользователя
Дата регистрации:
15 фев 2012, 16:44
Возраст: 27
Спасибо: 5141 / 2090
Сообщения: 17471
Год выхода: 1979-1980
Жанр: приключения, комедия, боевик
Режиссеры: Холлингсворт Морс, Пол Бэксли, Дик Модер, Родни Амато, Уильям Эшер, Джек Старретт, Эрнест Пинтофф, Аллен Барон, Джек Уитман, Артур Маркс, Денвер Пайл

В ролях: Том Вопат, Джон Шнайдер, Кэтрин Бак, Денвер Пайл, Джеймс Бест, Соррел Бук, Уэйлон Дженнингс, Бен Джонс, Сонни Шроер, Тисч Рэй, Эрни Лайвли, Дэн Фицджералд и др.

Описание:
Телесериал повествует о приключениях двух двоюродных братьев Дюков, Бо и Люка, проживающих в округе Хаззард и использующим в качестве средства передвижения Dodge Charger 1969 года выпуска, характерной окраски (с изображением флага Конфедерации на крыше) и по прозвищу «Генерал Ли» (в честь знаменитого военачальника Конфедерации, бывшего командующего армии Северной Вирджинии). При помощи двоюродной сестренки Дейзи и дядюшки Джесси они начинают борьбу с властям округа Хаззард.



Страна: США
Студия: Warner Bros. Television
Продолжительность: 23 x ~49 мин.
Перевод: Авторский (одноголосый закадровый] [Вячеслав Котов]

Файл
Качество: DVDRip-AVC
Формат: MKV
Видео кодек: H264
Аудио кодек: MP3
Видео: 640x480 (4:3), 23.976 fps, ~1013 Kbps, 0.138 bit/pixel
Аудио1: 48 kHz, MPEG Layer 3, 1 ch, 128.00 kbps avg [Rus]
Аудио2: 48 kHz, MPEG Layer 3, 1 ch, ~128.00 kbps avg [Original]





[/center]
Код:
General
Unique ID                                : 229586963180102628310481751694110783352 (0xACB8D7399E82B3E691A58573DF027778)
Complete name                            : Dukes.of.Hazzard.S02E08.DVDRip-AVC.[DukesBoys].mkv
Format                                   : Matroska
Format version                           : Version 2
File size                                : 449 MiB
Duration                                 : 49mn 22s
Overall bit rate                         : 1 271 Kbps
Movie name                               : Дюки из Хаззарда / Сезон: 2 / Эпизод: 08 - Связи в Хаззарде [Релиз от: DukesBoys]
Encoded date                             : UTC 2013-04-22 17:23:08
Writing application                      : mkvmerge v5.2.1 ('A Far Off Place') built on Jan  2 2012 23:21:10
Writing library                          : libebml v1.2.3 + libmatroska v1.3.0
Video
ID                                       : 1
Format                                   : AVC
Format/Info                              : Advanced Video Codec
Format profile                           : High@L4.1
Format settings, CABAC                   : Yes
Format settings, ReFrames                : 3 frames
Codec ID                                 : V_MPEG4/ISO/AVC
Duration                                 : 49mn 22s
Bit rate                                 : 1 013 Kbps
Width                                    : 640 pixels
Height                                   : 480 pixels
Display aspect ratio                     : 4:3
Frame rate                               : 23.976 fps
Color space                              : YUV
Chroma subsampling                       : 4:2:0
Bit depth                                : 8 bits
Scan type                                : Progressive
Bits/(Pixel*Frame)                       : 0.138
Stream size                              : 350 MiB (78%)
Writing library                          : x264 core 120 r2164 da19765
Encoding settings                        : cabac=1 / ref=3 / deblock=1:-1:-1 / analyse=0x3:0x113 / me=hex / subme=9 / psy=1 / psy_rd=1.00:0.00 / mixed_ref=1 / me_range=16 / chroma_me=1 / trellis=1 / 8x8dct=1 / cqm=0 / deadzone=21,11 / fast_pskip=1 / chroma_qp_offset=-2 / threads=3 / sliced_threads=0 / nr=0 / decimate=1 / interlaced=0 / bluray_compat=0 / constrained_intra=0 / bframes=3 / b_pyramid=0 / b_adapt=1 / b_bias=0 / direct=1 / weightb=1 / open_gop=0 / weightp=2 / keyint=240 / keyint_min=23 / scenecut=40 / intra_refresh=0 / rc_lookahead=40 / rc=2pass / mbtree=1 / bitrate=1013 / ratetol=1.0 / qcomp=0.60 / qpmin=10 / qpmax=51 / qpstep=4 / cplxblur=20.0 / qblur=0.5 / vbv_maxrate=50000 / vbv_bufsize=50000 / nal_hrd=none / ip_ratio=1.40 / aq=1:1.00
Language                                 : English
Default                                  : Yes
Forced                                   : No
Audio #1
ID                                       : 2
Format                                   : MPEG Audio
Format version                           : Version 1
Format profile                           : Layer 3
Codec ID                                 : A_MPEG/L3
Codec ID/Hint                            : MP3
Duration                                 : 49mn 22s
Bit rate mode                            : Constant
Bit rate                                 : 128 Kbps
Channel(s)                               : 1 channel
Sampling rate                            : 48.0 KHz
Compression mode                         : Lossy
Stream size                              : 45.2 MiB (10%)
Title                                    : VO (Котов)
Writing library                          : LAME3.99r
Encoding settings                        : -m m -V 4 -q 2 -lowpass 20.5 -b 128
Language                                 : Russian
Default                                  : Yes
Forced                                   : No
Audio #2
ID                                       : 3
Format                                   : MPEG Audio
Format version                           : Version 1
Format profile                           : Layer 3
Codec ID                                 : A_MPEG/L3
Codec ID/Hint                            : MP3
Duration                                 : 49mn 22s
Bit rate mode                            : Constant
Bit rate                                 : 128 Kbps
Channel(s)                               : 1 channel
Sampling rate                            : 48.0 KHz
Compression mode                         : Lossy
Stream size                              : 45.2 MiB (10%)
Title                                    : Original
Writing library                          : LAME3.99r
Encoding settings                        : -m m -V 4 -q 2 -lowpass 20.5 -b 128
Language                                 : English
Default                                  : No
Forced                                   : No

Релиз от:


_________________



реклама партнёра


Вернуться к началу
 Профиль Отправить личное сообщение  
 
   Похожие торренты   Автор   Торрент   Размер 
В этой теме нет новых непрочитанных сообщений. Hazzard - Hazzard [1983, Heavy Metal, MP3]

PriZraK

0 | 1

47.8 МБ

В этой теме нет новых непрочитанных сообщений. Придурки / Les truffes [Комедия, 1995] DVDRip-AVC, Mvo

salma3

38 | 2

1.46 ГБ

В этой теме нет новых непрочитанных сообщений. Молодой мастер / Shi di chu ma [боевик, комедия, приключения, 1980] HDRip, Mvo

salma3

18 | 3

1.46 ГБ

В этой теме нет новых непрочитанных сообщений. Захват в Северном море / North Sea Hijack [триллер, приключения, боевик, 1979] DVDRip, Mvo

salma3

32 | 6

1.46 ГБ

В этой теме нет новых непрочитанных сообщений. Драка / Knockabout / Za jia xiao zi [боевик, комедия, 1979] DVDRip, Avo

salma3

8 | 2

1.37 ГБ

В этой теме нет новых непрочитанных сообщений. Дружба и вражда / Yari Dushmani [Боевик, комедия, драма, 1980] DVDRip, Avo

salma3

2 | 7

2.05 ГБ

В этой теме нет новых непрочитанных сообщений. Придурки на каникулах / Les sous-doués en vacances [Мелодрама, комедия, музыка, 1982] BDRip 1080p, Mvo

salma3

31 | 14

12.52 ГБ


Начать новую тему Ответить на тему  [ 1 сообщение ] 




Для Мосгорсуда, Роскомнадзора и рекламодателей:: mosgorsud-torrent[собачка]yandex.ru