Торрент файл
скачать торрент магнет ссылка Добавлен: 16 окт 2014, 13:12
Размер: 13.9 ГБ
Сидеров: 2
Личеров: 3
Автор

СообщениеДобавлено: 07 окт 2014, 13:28 

Не в сети
Аватара пользователя
Дата регистрации:
09 авг 2014, 12:07
Спасибо: 49 / 1
Сообщения: 156
Откуда: КРАСНОГОРСК
Анжелика




Год выпуска: 2014
Выпущено: Россия, Леан-М, Гуд Стори Медиа
Жанр: Комедия
Продолжительность: 00:25:36
Сезон: 1
Серия: 1-20
Количество серий в сезоне: 20
Перевод:НЕ ТРЕБУЕТСЯ
Субтитры : отсутствуют




Режиссер: Радда Новикова

В ролях: Анжелика Каширина, Ксения Теплова, Мария Баева, Любовь Толкалина, Игорь Лантратов, Наталья Бардо, Аристарх Венес, Яна Крайнова, Александр Белоногов, Марина Гайзидорская, Сергей Комаров, Александр Константинов, Василий Ракша, Маруся Зыкова, Константин Чепурин, Юлия Сорокина, Дмитрий Горевой

не в размере S счастье

Сериал смог зацепить с первой серии.

Во-первых, зацепил сценарий. Сюжет достаточно простой. Очень легкий и без пошлого юмора. В центре сюжета главная героиня, которая постоянно худеет-толстеет и её друзья, которые хоть и худые, но своих проблем тоже у них полно. И хотя здесь нет глубокого философского смысла, но что-то подчерпнуть для себя сможет каждый.

Во-вторых, зацепила работа гримеров. Так «отолстить» Анжелику Каширину — нужно очень постараться! Причем получился очень милый и обаятельный образ. Толстушка из Анжелики — ну очень симпатичная! И иногда даже хотелось побольше видеть её пухленькой, нежели чем худой.

В-третьих, понравилась игра актеров. Главная героиня — умница!!! Очень здорово создала образы её героинь. Да и остальные актеры — порадовали. Правда, иногда Женя немного смахивает на Галину Сергеевну из «Папиных дочек», но только в начале. И Никита иногда перебарщивает со свой слащавостью… Но с этим, как говорится, на любителя… Деканша, Леша и Кристина — ну это что-то нереальное, хочется видеть их в кадре постоянно.

В-четвёртых, режиссура. Очень хорошо. И задумка с вставками из комиксов — тоже круто.

Смотреть всем, кто хочет расслабиться после рабочего дня. Освежит, взбодрит и рассмешит. Определенно.


Качество : WEB-DLRip-AVC 720р
Формат: MPEG-4
Видео кодек: H264
Видео: 3652Кбит/сек,1280х720(16.9),в 25.000кадр/сек,AVC(Baseline@L3.1)(1Ref Frames)
Аудио кодек: AAC
Аудио Russian :303Кбит/сек,48.0КГц,2канала,AAC(LC)

General
Полное имя : F:\К И Н О\Н А Ш Е К И Н О\АНЖЕЛИКА\ANZHELIKA_2014_S01_RUS[STS_RUSSIAN]_x264_Nikolai.Baranov_WEB-DLRip-AVC_(720p)\ANZHELIKA_2014_S01E01_RUS[STS_RUSSIAN]_x264_Nikolai.Baranov_WEB-DLRip-AVC_(720p).mp4
Формат : MPEG-4
Профиль формата : Base Media
Идентификатор кодека : isom
Размер файла : 742 MiB
Продолжительность : 26mn 12s
Режим общего битрейта : Variable
Общий поток : 3 960 Kbps
Дата кодирования : UTC 2014-10-05 10:53:59
Дата пометки : UTC 2014-10-05 10:53:59
Программа кодирования : Lavf51.12.1

Video
Идентификатор : 1
Формат : AVC
Формат/Информация : Advanced Video Codec
Профиль формата : Baseline@L3.1
Параметр CABAC формата : No
Параметр ReFrames формата : 1 frame
Параметр GOP формата : M=1, N=12
Идентификатор кодека : avc1
Идентификатор кодека/Информация : Advanced Video Coding
Продолжительность : 26mn 12s
Вид битрейта : Variable
Битрейт : 3 652 Kbps
Максимальный битрейт : 5 250 Kbps
Ширина : 1 280 pixels
Высота : 720 pixels
Соотношение сторон : 16:9
Режим частоты кадров : Constant
Частота кадров : 25.000 fps
Частота кадров в оригинале : 24.000 fps
Цветовое пространство : YUV
Субдискретизация насыщенности : 4:2:0
Битовая глубина : 8 bits
Тип развёртки : Progressive
Бит/(Пиксели*Кадры) : 0.159
Размер потока : 685 MiB (92%)
Язык : English
Дата кодирования : UTC 2014-10-05 10:53:59
Дата пометки : UTC 2014-10-05 10:53:59

Audio
Идентификатор : 2
Формат : AAC
Формат/Информация : Advanced Audio Codec
Профиль формата : LC
Идентификатор кодека : 40
Продолжительность : 26mn 12s
Вид битрейта : Variable
Битрейт : 303 Kbps
Каналы : 2 channels
Channel(s)_Original : 6 channels
Расположение каналов : Front: L C R, Side: L R, LFE
Частота : 48.0 KHz
Метод сжатия : Lossy
Размер потока : 56.8 MiB (8%)
Дата кодирования : UTC 2014-10-05 10:53:59
Дата пометки : UTC 2014-10-05 10:53:59









1. Открыть торрент
2. Снять галки с тех файлов торрента, которые мы не хотим закачивать. Оставляем только на нужных нам файлах (файле).
3. Нажать О.К.

В клиенте utorrent

Инструкция

1) Открыть торрент


2) Снять галки с тех файлов торрента, которые мы не хотим закачивать:

* либо вручную, снимая с каждого файла галку( скрин №1)
* либо, нажав кнопку "Снять метки (Select None)", сняв сразу со всех файлов(скрин №2)
№1

№2

Оставляем только на нужных нам файлах (файле).

3)Нажать О.К







Внимание!!! 16.10. 2014. РАЗДАЧА ОБНОВЛЕНА.ОБНОВИТЕ ТОРЕНТ ФАЙЛ.ПРИЯТНОГО ПРОСМОТРА .

Релиз от: Nikolai.Baranov







_________________

Легко быть оптимистом, когда судьба не валит с ног тяжелыми ударами, а лишь иногда легонько шлепает по заднице.



реклама партнёра


Вернуться к началу
 Профиль Отправить личное сообщение  
 
   Похожие торренты   Автор   Торрент   Размер 
В этой теме нет новых непрочитанных сообщений. Анжелика [02х01-20 из 20] (Радда Новикова) [Комедия, 2015] WEB-DL 1080p

Dracon

23 | 16

17.62 ГБ

В этой теме нет новых непрочитанных сообщений. Папа на вырост [1-20 серии из 20] (Радда Новикова) [комедия, семейный, 2015] SATRip

Dracon

194 | 61

6.44 ГБ

В этой теме нет новых непрочитанных сообщений. Анжелика [1-20 серия из 20] [комедия, 2014] SatRip

Dracon

3 | 3

6.5 ГБ

В этой теме нет новых непрочитанных сообщений. Анжелика [2 сезон 1-20 серии из 20] [комедия, 2015] SatRip

Dracon

78 | 35

6.1 ГБ

В этой теме нет новых непрочитанных сообщений. Анжелика [01х01-20 из 20] [Комедия, 2014] WEB-DL 720p

Dracon

84 | 29

9.1 ГБ

В этой теме нет новых непрочитанных сообщений. Франклин и Бэш / Компаньоны / Franklin & Bash [04х01-08 из 10] (Джейсон Энслер, Стив Робин) [2014, комедия, WEB-DLRip 720р | To4ka]

Nickolas3435

0 | 117

11.37 ГБ

В этой теме нет новых непрочитанных сообщений. Волчонок / Teen Wolf / 4 сезон 1-12 серии из 12 [Мистика, драма, приключения, комедия, 2014] WEB-DL 720р, Mvo [VO-production]

salma3

148 | 63

13.52 ГБ


Начать новую тему Ответить на тему  [ 1 сообщение ] 




Для Мосгорсуда, Роскомнадзора и рекламодателей:: mosgorsud-torrent[собачка]yandex.ru