Торрент файл
скачать торрент магнет ссылка Добавлен: 07 окт 2014, 11:35
Размер: 7.61 ГБ
Сидеров: 184
Личеров: 50
Статус: (salma3)
Автор

СообщениеДобавлено: 07 окт 2014, 11:35 

Не в сети
Супермодератор
Аватара пользователя
Дата регистрации:
15 фев 2012, 16:44
Возраст: 27
Спасибо: 5143 / 2090
Сообщения: 17495
Читающий мысли / The Listener

Год выхода: 2014
Жанр: Фэнтези, драма, криминал
Режиссер: Клемент Вирго, Кари Скогланд, Чарльз Бинами

В ролях: Крэйг Олейник, Эннис Эсмер, Милен Робик, Лоурен Ли Смит, Рейнбоу Фрэнкс, Арнольд Пиннок, Питер Стеббингс, Тара Спенсер-Нэйрн, Лиза Маркос, Энтони Лемке

Описание:
Тоби Логан - 28-летний парамедик, обладающий способностью читать мысли людей. В один прекрасный день он решает использовать свой дар на благо других людей и помогать раскрывать преступления. В целом сериал притягивает, помогает расслабиться, но всё же подкидывает желающим мысли для размышления. И пусть он не дотягивает до самой верхней планки жанра, тем не менее вполне добротный, интересный продукт.




Страна: Канада
Продолжительность: ~ 00:43:00
Перевод: Профессиональный (многоголосый закадровый) [FOX]

Файл
Качество: WEB-DLRip
Формат файла: AVI
Видео кодек: XviD
Аудио кодек: MP3
Видео: XviD, ~ 1659 Кбит/с, 23.976 fps, 720x400
Аудио: MP3, 2 ch, ~128 Кбит/с
Аудио: MP3, 2 ch, ~128 Кбит/с

Общее
Полное имя : F: The Listener.S05E01.WEB-DLRip.Rus.Eng.MediaClub.avi
Формат : AVI
Формат/Информация : Audio Video Interleave
Размер файла : 596 Мбайт
Продолжительность : 43 м.
Общий поток : 1930 Кбит/сек
Название фильма : The Listener S05E01 - Не тот человек
Режиссёр : MediaClub
Программа кодирования : VirtualDubMod 1.5.10.2 (build 2540/release)

Видео
Идентификатор : 0
Формат : MPEG-4 Visual
Профиль формата : Advanced Simple@L5
Параметр BVOP формата : 2
Параметр QPel формата : Нет
Параметр GMC формата : Без точки перехода
Параметр матрицы формата : Default (MPEG)
Идентификатор кодека : XVID
Идентификатор кодека/Подсказка : XviD
Продолжительность : 43 м.
Битрейт : 1660 Кбит/сек
Ширина : 720 пикселей
Высота : 400 пикселей
Соотношение сторон : 16:9
Частота кадров : 23,976 кадра/сек
Цветовое пространство : YUV
Субдискретизация насыщенности : 4:2:0
Битовая глубина : 8 бит
Тип развёртки : Прогрессивная
Метод сжатия : С потерями
Бит/(Пиксели*Кадры) : 0.240
Размер потока : 513 Мбайт (86%)
Библиотека кодирования : XviD 1.2.1 (UTC 2008-12-04)

Аудио #1
Идентификатор : 1
Формат : MPEG Audio
Версия формата : Version 1
Профиль формата : Layer 3
Идентификатор кодека : 55
Идентификатор кодека/Подсказка : MP3
Продолжительность : 43 м.
Вид битрейта : Постоянный
Битрейт : 128 Кбит/сек
Каналы : 2 канала
Частота : 48,0 КГц
Метод сжатия : С потерями
Размер потока : 39,6 Мбайт (7%)
Выравнивание : Соединение по промежуткам
Продолжительность промежутка : 42 мс. (1,00 видеокадр)
Время предзагрузки промежутка : 504 мс.

Аудио #2
Идентификатор : 2
Формат : MPEG Audio
Версия формата : Version 1
Профиль формата : Layer 3
Идентификатор кодека : 55
Идентификатор кодека/Подсказка : MP3
Продолжительность : 43 м.
Вид битрейта : Постоянный
Битрейт : 128 Кбит/сек
Каналы : 2 канала
Частота : 48,0 КГц
Метод сжатия : С потерями
Размер потока : 39,6 Мбайт (7%)
Выравнивание : Соединение по промежуткам
Продолжительность промежутка : 42 мс. (1,00 видеокадр)
Время предзагрузки промежутка : 504 мс.
Библиотека кодирования : LAME3.99r
Настройки программы : -m s -V 4 -q 2 -lowpass 17 -b 128


Запись и сведение звука super12308
Спасибо To4ka.TV за звук к 2-ой серии
За постер спасибо anestol от Media-Art-Club


Релиз от: |


_________________



реклама партнёра


Вернуться к началу
 Профиль Отправить личное сообщение  
 
   Похожие торренты   Автор   Торрент   Размер 
В этой теме нет новых непрочитанных сообщений. Зов крови / Потерянная / Фэйри / Lost Girl / 5 сезон 1-16 серии из 16 [фэнтези, криминал, 2014] WEB-DLRip, Mvo [NewStudio]

salma3

316 | 297

8.61 ГБ

В этой теме нет новых непрочитанных сообщений. Воскрешение / Resurrection / 2 сезон 1-13 серии из 13 [Фэнтези, драма, 2014] WEB-DLRip, Mvo [NewStudio]

salma3

109 | 95

6.98 ГБ

В этой теме нет новых непрочитанных сообщений. Рога / Horns [ужасы, фэнтези, триллер, драма, 2014] WEB-DLRip [Матвеев]

Dracon

543 | 26

2.06 ГБ

В этой теме нет новых непрочитанных сообщений. Воскрешение / Resurrection / 1 сезон 1-8 серии из 8 [Фэнтези, драма, 2014] WEB-DLRip, Mvo [NewStudio]

salma3

234 | 51

4.3 ГБ

В этой теме нет новых непрочитанных сообщений. Читая мысли / Like minds [ужасы, триллер, криминал, детектив, 2006] DVDRip, Mvo

salma3

137 | 12

1.37 ГБ

В этой теме нет новых непрочитанных сообщений. Люцифер / Lucifer [02x01-08 из 22] (фэнтези, драма, криминал, 2016) WEB-DLRip от Semak | Jaskier

marya111

9 | 20

2.96 ГБ

В этой теме нет новых непрочитанных сообщений. Люцифер / Lucifer [02x01-09 из 22] (фэнтези, драма, криминал, 2016) WEB-DLRip от Semak | Jaskier

marya111

27 | 79

3.33 ГБ


Начать новую тему Ответить на тему  [ 1 сообщение ] 




Для Мосгорсуда, Роскомнадзора и рекламодателей:: mosgorsud-torrent[собачка]yandex.ru