Торрент файл
скачать торрент магнет ссылка Добавлен: 18 сен 2014, 23:54
Размер: 1.57 ГБ
Сидеров: 100
Личеров: 14
Автор

СообщениеДобавлено: 18 сен 2014, 23:54 

Не в сети
Супермодератор
Аватара пользователя
Дата регистрации:
06 июн 2014, 07:51
Спасибо: 577 / 0
Сообщения: 2002
Год выпуска: 2014
Страна: США
Жанр: фантастика, драма
Продолжительность: ~43 мин.
Перевод: Профессиональный (многоголосый закадровый) Гараж Дубляж
Режиссёр: Мэтью Миллер
В ролях:
Йоан Гриффит (Dr. Henry Morgan), Лоррейн Туссен (Lt. Joanna Reece), Алана Де Ла Гарза (Detective Jo Martinez), Донни Кешаварц (Detective Hanson), Джоэль Мур (Lucas), Джадд Хёрш (Abe), Микаелла Эшли (1950's Featured Women), Alison Barton (Actress), Джудит Лайтфут Кларк (Mary Hulquist), Джессика ДиДжиованни (Real Estate Agent), Джулиан Гэмбл (Landlord), Чарли Хадсон III (Drug Dealer)
Описание:
У доктора Генри Моргана, звездного судебно-медицинского эксперта Нью-Йорка, есть секрет. Он изучает мертвых не только, чтобы раскрывать уголовные дела. Он это делает, чтобы раскрыть тайну, которая ускользала от него на протяжении 200 лет - причину своего бессмертия...
Сэмпл: http://multi-up.com/999765
Качество: HDTVRip 720p
Контейнер: MKV
Видео: H.264, 1280x720 [16:9], 23.976 fps, 4 341 kbps, 0.196 bit/pixel
Аудио 1: AC3, 48 kHz, 6 ch, 384 kbps [Гараж Дубляж]
Аудио 2: AC3, 48 kHz, 6 ch, 384 kbps [Оригинал]
Субтитры: отсутствуют
Format : Matroska
Format version : Version 4 / Version 2
File size : 1.57 GiB
Duration : 43mn 11s
Overall bit rate : 5 213 Kbps
Movie name : Forever 1x01 Pilot @ AlexFilm
Encoded date : UTC 2014-09-17 12:35:20
Writing application : mkvmerge v7.2.0 ('On Every Street') 64bit built on Sep 13 2014 15:52:10
Writing library : libebml v1.3.0 + libmatroska v1.4.1
DURATION : 00:43:11.392000000
NUMBER_OF_FRAMES : 80981
NUMBER_OF_BYTES : 124386816
_STATISTICS_WRITING_APP : mkvmerge v7.2.0 ('On Every Street') 64bit built on Sep 13 2014 15:52:10
_STATISTICS_WRITING_DATE_UTC : 2014-09-17 12:35:20
_STATISTICS_TAGS : BPS DURATION NUMBER_OF_FRAMES NUMBER_OF_BYTES
Video
ID : 1
Format : AVC
Format/Info : Advanced Video Codec
Format profile : High@L4.1
Format settings, CABAC : Yes
Format settings, ReFrames : 5 frames
Codec ID : V_MPEG4/ISO/AVC
Duration : 43mn 11s
Bit rate : 4 341 Kbps
Width : 1 280 pixels
Height : 720 pixels
Display aspect ratio : 16:9
Frame rate mode : Constant
Frame rate : 23.976 fps
Color space : YUV
Chroma subsampling : 4:2:0
Bit depth : 8 bits
Scan type : Progressive
Bits/(Pixel*Frame) : 0.196
Stream size : 1.31 GiB (83%)
Writing library : x264 core 142 r2453 ea0ca51
Encoding settings : cabac=1 / ref=5 / deblock=1:0:0 / analyse=0x3:0x113 / me=umh / subme=8 / psy=1 / psy_rd=1.00:0.00 / mixed_ref=1 / me_range=16 / chroma_me=1 / trellis=1 / 8x8dct=1 / cqm=0 / deadzone=21,11 / fast_pskip=1 / chroma_qp_offset=-2 / threads=12 / lookahead_threads=2 / sliced_threads=0 / nr=0 / decimate=1 / interlaced=0 / bluray_compat=0 / constrained_intra=0 / bframes=3 / b_pyramid=2 / b_adapt=2 / b_bias=0 / direct=3 / weightb=1 / open_gop=0 / weightp=2 / keyint=250 / keyint_min=23 / scenecut=40 / intra_refresh=0 / rc_lookahead=50 / rc=crf / mbtree=1 / crf=18.0 / qcomp=0.60 / qpmin=0 / qpmax=69 / qpstep=4 / ip_ratio=1.40 / aq=1:1.00
Language : English
Default : Yes
Forced : No
Matrix coefficients : BT.709
DURATION : 00:43:09.212000000
NUMBER_OF_FRAMES : 62079
NUMBER_OF_BYTES : 1439156108
_STATISTICS_WRITING_APP : mkvmerge v7.2.0 ('On Every Street') 64bit built on Sep 13 2014 15:52:10
_STATISTICS_WRITING_DATE_UTC : 2014-09-17 12:35:20
_STATISTICS_TAGS : BPS DURATION NUMBER_OF_FRAMES NUMBER_OF_BYTES
Audio #1
ID : 2
Format : AC-3
Format/Info : Audio Coding 3
Mode extension : CM (complete main)
Format settings, Endianness : Big
Codec ID : A_AC3
Duration : 43mn 11s
Bit rate mode : Constant
Bit rate : 384 Kbps
Channel(s) : 6 channels
Channel positions : Front: L C R, Side: L R, LFE
Sampling rate : 48.0 KHz
Bit depth : 16 bits
Compression mode : Lossy
Stream size : 119 MiB (7%)
Title : 5.1 Гараж Дубляж http://vk.com/dubgarage
Language : Russian
Default : Yes
Forced : No
Audio #2
ID : 3
Format : AC-3
Format/Info : Audio Coding 3
Mode extension : CM (complete main)
Format settings, Endianness : Big
Codec ID : A_AC3
Duration : 43mn 11s
Bit rate mode : Constant
Bit rate : 384 Kbps
Channel(s) : 6 channels
Channel positions : Front: L C R, Side: L R, LFE
Sampling rate : 48.0 KHz
Bit depth : 16 bits
Compression mode : Lossy
Stream size : 119 MiB (7%)
Title : 5.1 Original
Language : English
Default : No
Forced : No





реклама партнёра


Вернуться к началу
 Профиль Отправить личное сообщение  
 
   Похожие торренты   Автор   Торрент   Размер 
В этой теме нет новых непрочитанных сообщений. Вечность / Forever [s01x01] (Мэтью Миллер) [2014, Мэтью Миллер, HDTVRip | Гараж Дубляж]

Nickolas3435

87 | 14

379.75 МБ

В этой теме нет новых непрочитанных сообщений. Вечность / Forever [01x01-02 из 13] (Мэтью Миллер) [2014, фантастика, драма, HDTVRip | BaibaKo]

Nickolas3435

123 | 71

1.15 ГБ

В этой теме нет новых непрочитанных сообщений. Поглощён Вечность / Forever [01x01 из 13] (Мэтью Миллер) [2014, фантастика, драма, HDTVRip | BaibaKo] Данный торрент является блокированным, причина: поглощённый торрент

Nickolas3435

906 | 18

588.92 МБ

В этой теме нет новых непрочитанных сообщений. Вечность / Forever [01x01-05 из 13] (Мэтью Миллер) [2014, фантастика, драма, HDTVRip | NewStudio]

Nickolas3435

220 | 187

2.68 ГБ

В этой теме нет новых непрочитанных сообщений. Вечность / Forever [01x01-07 из 13] (Мэтью Миллер) [2014, фантастика, драма, WEB-DLRip | NewStudio]

Nickolas3435

389 | 323

3.76 ГБ

В этой теме нет новых непрочитанных сообщений. Вечность / Forever [01x01-06 из 13] (Мэтью Миллер) [2014, фантастика, драма, WEB-DL 1080p | BaibaKo]

Nickolas3434

78 | 149

9.78 ГБ

В этой теме нет новых непрочитанных сообщений. Вечность / Forever [01x01-10 из 22] (Мэтью Миллер) [2014, фантастика, драма, WEB-DL 1080p | NewStudio]

Nickolas3435

108 | 251

16.31 ГБ


Начать новую тему Ответить на тему  [ 1 сообщение ] 




Для Мосгорсуда, Роскомнадзора и рекламодателей:: mosgorsud-torrent[собачка]yandex.ru