Торрент файл
скачать торрент магнет ссылка Добавлен: 18 сен 2014, 23:52
Размер: 379.75 МБ
Сидеров: 87
Личеров: 14
Автор

СообщениеДобавлено: 18 сен 2014, 23:52 

Не в сети
Супермодератор
Аватара пользователя
Дата регистрации:
06 июн 2014, 07:51
Спасибо: 576 / 0
Сообщения: 2002
Год выпуска: 2014
Страна: США
Жанр: фантастика, драма
Продолжительность: ~43 мин.
Перевод: Профессиональный (многоголосый закадровый) Гараж Дубляж
Русские субтитры: нет
Режиссёр: Мэтью Миллер
В ролях: Йоан Гриффит (Dr. Henry Morgan), Лоррейн Туссен (Lt. Joanna Reece), Алана Де Ла Гарза (Detective Jo Martinez), Донни Кешаварц (Detective Hanson), Джоэль Мур (Lucas), Джадд Хёрш (Abe), Микаелла Эшли (1950's Featured Women), Alison Barton (Actress), Джудит Лайтфут Кларк (Mary Hulquist), Джессика ДиДжиованни (Real Estate Agent), Джулиан Гэмбл (Landlord), Чарли Хадсон III (Drug Dealer)
Описание: У доктора Генри Моргана, звездного судебно-медицинского эксперта Нью-Йорка, есть секрет. Он изучает мертвых не только, чтобы раскрывать уголовные дела. Он это делает, чтобы раскрыть тайну, которая ускользала от него на протяжении 200 лет - причину своего бессмертия...
Сэмпл: http://multi-up.com/999770
Качество: HDTVRip
Формат: MP4
Видео кодек: AVC
Аудио кодек: AAC
Видео: 720x404 (1.80:1), 23.976 fps, AVC 987 Kbps, 0.142 bit/pixel
Аудио 1: AAC, 48 kHz, 2 ch, 114 kbps [Русский, Гараж Дубляж]
Аудио 2: AAC, 48 kHz, 2 ch, 123 kbps [Английский, Оригинал]
Format : MPEG-4
Format profile : Base Media
Codec ID : isom
File size : 380 MiB
Duration : 43mn 11s
Overall bit rate mode : Variable
Overall bit rate : 1 229 Kbps
Encoded date : UTC 2014-09-17 14:23:31
Tagged date : UTC 2014-09-17 14:23:31
Writing application : MkvToMp4 [www.mkvtomp4.ru] version 0.224 (x64)
Video
ID : 1
Format : AVC
Format/Info : Advanced Video Codec
Format profile : High@L3.0
Format settings, CABAC : Yes
Format settings, ReFrames : 5 frames
Codec ID : avc1
Codec ID/Info : Advanced Video Coding
Duration : 43mn 9s
Bit rate : 987 Kbps
Maximum bit rate : 5 041 Kbps
Width : 720 pixels
Height : 404 pixels
Display aspect ratio : 16:9
Frame rate mode : Constant
Frame rate : 23.976 fps
Color space : YUV
Chroma subsampling : 4:2:0
Bit depth : 8 bits
Scan type : Progressive
Bits/(Pixel*Frame) : 0.142
Stream size : 305 MiB (80%)
Writing library : x264 core 142 r2453 ea0ca51
Encoding settings : cabac=1 / ref=5 / deblock=1:0:0 / analyse=0x3:0x113 / me=umh / subme=8 / psy=1 / psy_rd=1.00:0.00 / mixed_ref=1 / me_range=16 / chroma_me=1 / trellis=1 / 8x8dct=1 / cqm=0 / deadzone=21,11 / fast_pskip=1 / chroma_qp_offset=-2 / threads=12 / lookahead_threads=2 / sliced_threads=0 / nr=0 / decimate=1 / interlaced=0 / bluray_compat=0 / constrained_intra=0 / bframes=3 / b_pyramid=2 / b_adapt=2 / b_bias=0 / direct=3 / weightb=1 / open_gop=0 / weightp=2 / keyint=250 / keyint_min=23 / scenecut=40 / intra_refresh=0 / rc_lookahead=50 / rc=crf / mbtree=1 / crf=19.0 / qcomp=0.60 / qpmin=0 / qpmax=69 / qpstep=4 / ip_ratio=1.40 / aq=1:1.00
Language : English
Encoded date : UTC 2014-09-17 14:23:31
Tagged date : UTC 2014-09-17 14:23:38
Matrix coefficients : BT.709
Audio #1
ID : 2
Format : AAC
Format/Info : Advanced Audio Codec
Format profile : LC
Codec ID : 40
Duration : 43mn 11s
Bit rate mode : Variable
Bit rate : 114 Kbps
Maximum bit rate : 181 Kbps
Channel(s) : 2 channels
Channel positions : Front: L R
Sampling rate : 48.0 KHz
Compression mode : Lossy
Stream size : 35.3 MiB (9%)
Language : Russian
Encoded date : UTC 2014-09-17 14:22:12
Tagged date : UTC 2014-09-17 14:23:38
Audio #2
ID : 3
Format : AAC
Format/Info : Advanced Audio Codec
Format profile : LC
Codec ID : 40
Duration : 43mn 9s
Bit rate mode : Variable
Bit rate : 123 Kbps
Maximum bit rate : 147 Kbps
Channel(s) : 2 channels
Channel positions : Front: L R
Sampling rate : 48.0 KHz
Compression mode : Lossy
Stream size : 37.9 MiB (10%)
Language : English
Encoded date : UTC 2014-09-17 14:23:36
Tagged date : UTC 2014-09-17 14:23:38





реклама партнёра


Вернуться к началу
 Профиль Отправить личное сообщение  
 
   Похожие торренты   Автор   Торрент   Размер 
В этой теме нет новых непрочитанных сообщений. Вечность / Forever [s01х01] (Мэтью Миллер) [2014, фантастика, драма, HDTVRip 720p | Гараж Дубляж]

Nickolas3435

100 | 14

1.57 ГБ

В этой теме нет новых непрочитанных сообщений. Вечность / Forever [01x01-02 из 13] (Мэтью Миллер) [2014, фантастика, драма, HDTVRip | BaibaKo]

Nickolas3435

123 | 71

1.15 ГБ

В этой теме нет новых непрочитанных сообщений. Поглощён Вечность / Forever [01x01 из 13] (Мэтью Миллер) [2014, фантастика, драма, HDTVRip | BaibaKo] Данный торрент является блокированным, причина: поглощённый торрент

Nickolas3435

906 | 18

588.92 МБ

В этой теме нет новых непрочитанных сообщений. Вечность / Forever [01x01-05 из 13] (Мэтью Миллер) [2014, фантастика, драма, HDTVRip | NewStudio]

Nickolas3435

220 | 187

2.68 ГБ

В этой теме нет новых непрочитанных сообщений. Вечность / Forever [01x01-06 из 13] (Мэтью Миллер) [2014, фантастика, драма, WEB-DL 1080p | BaibaKo]

Nickolas3434

78 | 149

9.78 ГБ

В этой теме нет новых непрочитанных сообщений. Вечность / Forever [01x01-12 из 22] (Мэтью Миллер) [2014, фантастика, драма, WEB-DL 1080p | NewStudio]

Nickolas3435

115 | 118

19.63 ГБ

В этой теме нет новых непрочитанных сообщений. Вечность / Forever [01x01-07 из 13] (Мэтью Миллер) [2014, фантастика, драма, WEB-DLRip | NewStudio]

Nickolas3435

389 | 323

3.76 ГБ


Начать новую тему Ответить на тему  [ 1 сообщение ] 




Для Мосгорсуда, Роскомнадзора и рекламодателей:: mosgorsud-torrent[собачка]yandex.ru