Торрент файл
скачать торрент магнет ссылка Добавлен: 17 сен 2014, 14:41
Размер: 2.17 ГБ
Сидеров: 0
Личеров: 3
Статус: (salma3)
Автор

СообщениеДобавлено: 17 сен 2014, 14:45 

Не в сети
Аватара пользователя
Дата регистрации:
26 ноя 2013, 12:32
Возраст: 57
Спасибо: 54 / 8
Сообщения: 66
Откуда: СССР
Год выпуска: 2010
Выпущено: Россия ,Арт-Юнис, Группа компаний GP
Жанр: Детектив,криминал
Перевод: Не требуется
Режиссер: Денис Червяков
В ролях: Сергей Шакуров, Елена Ковальчук, Анатолий Петров, Александр Устюгов, Александра Флоринская, Ольга Ломоносова, Кирилл Сафонов, Анатолий Белый, Татьяна Черкасова, Магомед Костоев, Екатерина Вуличенко, Виктор Раду, Борис Смирнов (II)
О фильме: Пенсионер Валерий Петрович Ходасевич пытается жить в свое удовольствие, избегая стрессов и перегрузок - их было слишком много в его профессиональной биографии полковника внешней разведки. Неожиданный визит соседа по дому молодого бизнесмена Дениса Конышева нарушает тихое одиночество отставника. Денис рассказывает полковнику о загадочной гибели своего отца и просит заняться частным расследованием. Будучи тонким психологом и знатоком сложных жизненных коллизий, Ходасевич уже устал сидеть без дела. Предложение соседа его явно интригует, и он соглашается. Вот только история, в которую Денис втравил Ходасевича, оказывается с подвохом… Мини-сериал 4 серии (48 минут/серия) как часть 12-серийного цикла «Частный сыск полковника в отставке» по романам Анны и Сергея Литвиновых.
Сэмпл
Качество: SATRip
Видео: 720x400 (1.80:1), 25 fps, XviD MPEG-4 ~1465 kbps avg, 0.20 bit/pixel
Аудио: 48 kHz, AC3 Dolby Digital, 2/0 (L,R) ch, ~192 kbps
Продолжительность: 12 x ~00:45:00
Общее
Полное имя : D:\Мои фильмы\Chastnyj_sysk_polkovnika_v_otstavke_1-4iz4_2012_XviD_SATRip\Chastnyj_sysk_polkovnika_v_otstavke_1_iz_4_2012_SATRip.avi
Формат : AVI
Формат/Информация : Audio Video Interleave
Размер файла : 555 Мбайт
Продолжительность : 46 м.
Общий поток : 1668 Кбит/сек
Программа кодирования : VirtualDubMod 1.5.10.3 | http://www.virtualdub-fr.org || (build 2550/release)
Библиотека кодирования : VirtualDub build 35491/release

Видео
Идентификатор : 0
Формат : MPEG-4 Visual
Профиль формата : Advanced Simple@L5
Параметр BVOP формата : 2
Параметр QPel формата : Нет
Параметр GMC формата : Без точки перехода
Параметр матрицы формата : Default (H.263)
Режим смешивания : Сжатый битовый поток
Идентификатор кодека : XVID
Идентификатор кодека/Подсказка : XviD
Продолжительность : 46 м.
Битрейт : 1466 Кбит/сек
Ширина : 720 пикселей
Высота : 400 пикселей
Соотношение сторон : 16:9
Частота кадров : 25,000 кадров/сек
Цветовое пространство : YUV
Субдискретизация насыщенности : 4:2:0
Битовая глубина : 8 бит
Тип развёртки : Прогрессивная
Метод сжатия : С потерями
Бит/(Пиксели*Кадры) : 0.204
Размер потока : 488 Мбайт (88%)
Библиотека кодирования : XviD 65

Аудио
Идентификатор : 1
Формат : AC-3
Формат/Информация : Audio Coding 3
Расширение режима : CM (complete main)
Параметр Endianness формата : Big
Идентификатор кодека : 2000
Продолжительность : 46 м.
Вид битрейта : Постоянный
Битрейт : 192 Кбит/сек
Каналы : 2 канала
Расположение каналов : Front: L R
Частота : 48,0 КГц
Битовая глубина : 16 бит
Метод сжатия : С потерями
Размер потока : 63,9 Мбайт (12%)
Выравнивание : Соединение по промежуткам
Продолжительность промежутка : 40 мс. (1,00 видеокадр)
Время предзагрузки промежутка : 512 мс.






реклама партнёра


Вернуться к началу
 Профиль Отправить личное сообщение  
 
   Похожие торренты   Автор   Торрент   Размер 
В этой теме нет новых непрочитанных сообщений. Частный детектив / L'alpagueur [боевик, триллер, криминал, 1976] BDRip 720p, Dub

salma3

53 | 15

4.63 ГБ

В этой теме нет новых непрочитанных сообщений. Частный детектив Марлоу / Poodle Springs [драма, криминал, 1998] DVDRip, Mvo

salma3

577 | 7

1.37 ГБ

В этой теме нет новых непрочитанных сообщений. Частный детектив: Начало / Private Investigator: The Beginning (Ким Джон Хун / Kim Jung-Hoon) [2015г., Южная Корея, детектив, комедия, HDTVRip-AVC] DVO

Alfredovich

23 | 7

1.47 ГБ

В этой теме нет новых непрочитанных сообщений. Призрак Мон-Сен-Мишель / L'ombre du Mont-Saint-Michel (Клаус Бидерманн / Klaus Biedermann) [2010г., Франция, триллер, драма, детектив, SATRip] Dub

Alfredovich

22 | 2

1.27 ГБ

В этой теме нет новых непрочитанных сообщений. Рецепт / The Recipe / Doenjang (Су-Гун Ли / Suh-Goon Lee) [2010г., Южная Корея, драма, мелодрама, детектив, HDTVRip] DVO

Alfredovich

3 | 1

747.81 МБ

В этой теме нет новых непрочитанных сообщений. Слабительное для малыша / On purge bebe (Жерар Журдюи / Gérard Jourd'hui) [2010г., Франция, комедия, SATRip] MVO

Alfredovich

35 | 2

1.1 ГБ

В этой теме нет новых непрочитанных сообщений. Частный трах со своим парнем (2015) HD 1080p

Dile-1

2 | 2

305.63 МБ


Начать новую тему Ответить на тему  [ 1 сообщение ] 




Для Мосгорсуда, Роскомнадзора и рекламодателей:: mosgorsud-torrent[собачка]yandex.ru