Торрент файл
скачать торрент магнет ссылка Добавлен: 17 сен 2014, 11:57
Размер: 8.69 ГБ
Сидеров: 0
Личеров: 5
Статус: (salma3)
Автор

СообщениеДобавлено: 17 сен 2014, 11:58 

Не в сети
Аватара пользователя
Дата регистрации:
26 ноя 2013, 12:32
Возраст: 57
Спасибо: 53 / 8
Сообщения: 66
Откуда: СССР
    Год выпуска: 2012
    Выпущено: Россия ,Компания "Кинослово", Компания "Среда"
    Жанр: Фантастика, драма, криминал, детектив
    Перевод: Не требуется
    Режиссер: Александр Котт
    В ролях: Павел Деревянко, Светлана Смирнова-Марцинкевич, Иван Шибанов, Карина Разумовская, Евгений Богомолов, Олег Алмазов, Дмитрий Гусев, Александр Ляпин, Сергей Беляев, Сергей Галахов, Ирина Марцинкевич, Ирина Нарбекова, Анна Корнеева, Анна Цуканова, Сергей Карякин, Максим Костромыкин, Александр Сирин, Татьяна Масс, Андрюс Паулавичюс, Светлана Солянкина, Юрий Гурьев, Прадьюмна Чаттерджи, Денис Курочка, Семён Трескунов, Роман Дервоед, Артур Федорович
    О фильме: Третий год старший лейтенант полиции Михаил Соловьев идет по следу Маньяка, терроризирующего столицу убийствами молодых женщин. Во время операции задержания Маньяк сбивает Соловьева автомобилем. Придя в себя после аварии, Михаил обнаруживает, что переместился во времени и оказался в 1979 году. Не понимая до конца, что с ним произошло, он, тем не менее, старается адаптироваться к новым обстоятельствам, работая советским милиционером. А попутно пытается выяснить, в чем причина случившейся с ним метаморфозы.
    Сэмпл
    Качество: WEBRip
    Видео: 720x400 (1.80:1), 25 fps, XviD build 65 ~1263 kbps avg, 0.17 bit/pixel
    Аудио: 48 kHz, AC3 Dolby Digital, 2/0 (L,R) ch, ~192 kbps
    Продолжительность: 12 x ~00:45:00
    Общее
    Полное имя : D:\Мои фильмы\Obratnaja_storona_Luny_S1_01-16iz16_2012_XviD_WEBRip\Obratnaja_storona_Luny_S1_02_iz_16_2012_WEBRip.avi
    Формат : AVI
    Формат/Информация : Audio Video Interleave
    Размер файла : 556 Мбайт
    Продолжительность : 53 м.
    Общий поток : 1465 Кбит/сек
    Программа кодирования : Lavf52.94.0
    Библиотека кодирования : VirtualDub build 35491/release

    Видео
    Идентификатор : 0
    Формат : MPEG-4 Visual
    Профиль формата : Advanced Simple@L5
    Параметр BVOP формата : 2
    Параметр QPel формата : Нет
    Параметр GMC формата : Без точки перехода
    Параметр матрицы формата : Default (H.263)
    Идентификатор кодека : XVID
    Идентификатор кодека/Подсказка : XviD
    Продолжительность : 53 м.
    Битрейт : 1263 Кбит/сек
    Ширина : 720 пикселей
    Высота : 400 пикселей
    Соотношение сторон : 16:9
    Частота кадров : 25,000 кадров/сек
    Цветовое пространство : YUV
    Субдискретизация насыщенности : 4:2:0
    Битовая глубина : 8 бит
    Тип развёртки : Прогрессивная
    Метод сжатия : С потерями
    Бит/(Пиксели*Кадры) : 0.175
    Размер потока : 479 Мбайт (86%)
    Библиотека кодирования : XviD 65

    Аудио
    Идентификатор : 1
    Формат : AC-3
    Формат/Информация : Audio Coding 3
    Расширение режима : CM (complete main)
    Параметр Endianness формата : Big
    Идентификатор кодека : 2000
    Продолжительность : 53 м.
    Вид битрейта : Постоянный
    Битрейт : 192 Кбит/сек
    Каналы : 2 канала
    Расположение каналов : Front: L R
    Частота : 48,0 КГц
    Битовая глубина : 16 бит
    Метод сжатия : С потерями
    Размер потока : 72,8 Мбайт (13%)
    Выравнивание : Соединение по промежуткам
    Продолжительность промежутка : 40 мс. (1,00 видеокадр)
    Время предзагрузки промежутка : 512 мс.





    реклама партнёра


    Вернуться к началу
     Профиль Отправить личное сообщение  
     
       Похожие торренты   Автор   Торрент   Размер 
    В этой теме нет новых непрочитанных сообщений. Ногу Свело! - Обратная Сторона Ноги [2011, Rock, MP3]

    PriZraK

    11 | 2

    138.39 МБ

    В этой теме нет новых непрочитанных сообщений. Обратная сторона рая / Butterfly Man [Приключения, Мелодрама, 2002] DVDRip, Mvo

    salma3

    255 | 31

    699.8 МБ

    В этой теме нет новых непрочитанных сообщений. Полтергейст 2: Обратная сторона / Poltergeist II: The Other Side [ужасы, 1986] BDRemux 1080р, Mvo

    salma3

    21 | 34

    25.11 ГБ

    В этой теме нет новых непрочитанных сообщений. Обратная тяга / Backdraft [Боевик, триллер, драма, криминал, детектив, 1991] HDRip, Avo

    salma3

    23 | 1

    1.46 ГБ

    В этой теме нет новых непрочитанных сообщений. Темная сторона души [Серия 1-4 из 4] (Вячеслав Лавров) [Детектив, 2015] WEBRip

    Dracon

    5 | 2

    2.49 ГБ

    В этой теме нет новых непрочитанных сообщений. Тёмная сторона Луны / Die dunkle Seite des Mondes [триллер, 2015] BDRip 1080p, Mvo

    salma3

    33 | 4

    7.32 ГБ

    В этой теме нет новых непрочитанных сообщений. Тёмная сторона Луны / Die dunkle Seite des Mondes (Штефан Рик / Stephan Rick) [2015г., Германия, триллер, BDRip] AVO + MVO

    Alfredovich

    22 | 7

    1.59 ГБ


    Начать новую тему Ответить на тему  [ 1 сообщение ] 



    
    Для Мосгорсуда, Роскомнадзора и рекламодателей:: mosgorsud-torrent[собачка]yandex.ru