Торрент файл
скачать торрент магнет ссылка Добавлен: 17 сен 2014, 11:27
Размер: 4.35 ГБ
Сидеров: 1
Личеров: 2
Статус: (salma3)
Автор

СообщениеДобавлено: 17 сен 2014, 11:33 

Не в сети
Аватара пользователя
Дата регистрации:
26 ноя 2013, 12:32
Возраст: 56
Спасибо: 52 / 7
Сообщения: 66
Откуда: СССР
Год выпуска: 2013
Выпущено: Россия ,Стори Фёрст Продакшн
Жанр: Мелодрама, комедия
Перевод: Не требуется
Режиссер: Александр Жигалкин
В ролях: Фёдор Добронравов, Мария Аронова, Борис Клюев, Галина Петрова, Елена Шевченко, Карэн Бадалов, Мария Горбань, Юлия Зимина, Виктор Добронравов, Светлана Малюкова, Алексей Долгушин, Дмитрий Быковский-Ромашов
О фильме: Это история о двух братьях-близнецах, которые после тридцатилетней разлуки встречаются на родине, в глухом селе на похоронах отца. Волею судеб, их жизнь сложилась по-разному. И сами они, на первый взгляд, совершенно не похожи друг на друга: один – преуспевающий бизнесмен, второй – пьяница и зэк. Но постепенно становится понятно, что они родные люди, и сходство у них не только внешнее.

Сэмпл

Качество: DVDRip
Видео: 720x400 (1.80:1), 25 fps, XviD build 65 ~1210 kbps avg, 0.17 bit/pixel
Аудио: 48 kHz, AC3 Dolby Digital, 2/0 (L,R) ch, ~192 kbps
Продолжительность: 12 x ~00:45:00
Общее
Полное имя : D:\Brat'ja_po_obmenu_01-10iz10_2013_XviD_DVDRip\Brat'ja_po_obmenu_01_iz_10_2013_DVDRip.avi
Формат : AVI
Формат/Информация : Audio Video Interleave
Размер файла : 445 Мбайт
Продолжительность : 44 м.
Общий поток : 1412 Кбит/сек
Программа кодирования : VirtualDubMod 1.5.10.3 | http://www.virtualdub-fr.org || (build 2550/release)
Библиотека кодирования : VirtualDub build 35491/release

Видео
Идентификатор : 0
Формат : MPEG-4 Visual
Профиль формата : Advanced Simple@L5
Параметр BVOP формата : 2
Параметр QPel формата : Нет
Параметр GMC формата : Без точки перехода
Параметр матрицы формата : Default (H.263)
Идентификатор кодека : XVID
Идентификатор кодека/Подсказка : XviD
Продолжительность : 44 м.
Битрейт : 1210 Кбит/сек
Ширина : 720 пикселей
Высота : 400 пикселей
Соотношение сторон : 16:9
Частота кадров : 25,000 кадров/сек
Цветовое пространство : YUV
Субдискретизация насыщенности : 4:2:0
Битовая глубина : 8 бит
Тип развёртки : Прогрессивная
Метод сжатия : С потерями
Бит/(Пиксели*Кадры) : 0.168
Размер потока : 382 Мбайт (86%)
Библиотека кодирования : XviD 65

Аудио
Идентификатор : 1
Формат : AC-3
Формат/Информация : Audio Coding 3
Расширение режима : CM (complete main)
Параметр Endianness формата : Big
Идентификатор кодека : 2000
Продолжительность : 44 м.
Вид битрейта : Постоянный
Битрейт : 192 Кбит/сек
Каналы : 2 канала
Расположение каналов : Front: L R
Частота : 48,0 КГц
Битовая глубина : 16 бит
Метод сжатия : С потерями
Размер потока : 60,5 Мбайт (14%)
Выравнивание : Соединение по промежуткам
Продолжительность промежутка : 40 мс. (1,00 видеокадр)
Время предзагрузки промежутка : 512 мс.





реклама партнёра


Вернуться к началу
 Профиль Отправить личное сообщение  
 
   Похожие торренты   Автор   Торрент   Размер 
В этой теме нет новых непрочитанных сообщений. Братья по обмену [02х01-12 из 12] [Комедия, 2014] WEB-DL 720p

Dracon

481 | 46

9.91 ГБ

В этой теме нет новых непрочитанных сообщений. Братья по обмену [Сезон 2, Серия 1-12 из 12] [Комедия, 2014] SATRip

Dracon

317 | 43

7.23 ГБ

В этой теме нет новых непрочитанных сообщений. Студентки по обмену / Exchange Students (Jim Powers / Smash Pictures / Pink Velvet) [2013 г., Vignettes, Teen., WEB-DLRip 1080p, Оригинал]

max77777

10 | 6

7.03 ГБ

В этой теме нет новых непрочитанных сообщений. Черные братья / Die schwarzen Brüder (Ксавьер Коллер) [2013, Семейный, история, HDRip] avo

Nickolas3435

228 | 25

1.46 ГБ

В этой теме нет новых непрочитанных сообщений. Вот это любовь! [Мелодрама, комедия, 2013] DVDRip [Лицензия]

Dracon

140 | 4

1.37 ГБ

В этой теме нет новых непрочитанных сообщений. 7 главных желаний [Комедия, мелодрама, 2013] DVDRip [Лицензия]

Dracon

258 | 5

1.37 ГБ

В этой теме нет новых непрочитанных сообщений. Одноклассники.ru: НаCLICKай удачу [мелодрама, комедия, 2013] DVDRip

Dracon

2927 | 117

1.37 ГБ


Начать новую тему Ответить на тему  [ 1 сообщение ] 




Для Мосгорсуда, Роскомнадзора и рекламодателей:: mosgorsud-torrent[собачка]yandex.ru