Торрент файл
скачать торрент магнет ссылка Добавлен: 02 сен 2014, 10:32
Размер: 13.05 ГБ
Сидеров: 3
Личеров: 2
Автор

СообщениеДобавлено: 02 сен 2014, 10:40 

Не в сети
Аватара пользователя
Дата регистрации:
26 ноя 2013, 12:32
Возраст: 57
Спасибо: 54 / 8
Сообщения: 66
Откуда: СССР
Год выпуска: 2014
Выпущено: Россия ,"Star Media"
Жанр: Детектив, криминал
Перевод: Не требуется
Режиссер: Сергей Артимович, Владимир Штерянов
В ролях: Максим Дрозд, Павел Баршак, Владимир Стержаков, Павел Трубинер, Елена Радевич, Микаэл Джанибекян, Александр Тютин, Александр Цуркан, Максим Емельянов, Геннадий Матвеев, Евгений Мундум, Михаил Салин, Бесо Гатаев, Екатерина Крупенина, Максим Артамонов
О фильме: Сериал о работе одного из подразделений криминальной полиции отдела уголовного розыска по борьбе с карманными кражами. Главные герои Ярослав Широков, Семён Хаимович Фельдман, Дмитрий Метельский и Наталья Вольская. На профессиональном сленге их называют «тихарями», а охотятся они за представителями высшей касты воровского дела за щипачами. Карманники работают тихо, вычисляют в толпе жертву и с филигранной точностью забирают у нее все «ненужное» кошельки, телефоны, украшения. И ловить этих «ювелиров» должны не менее профессиональные люди. Щипачи, борсеточники, марвихеры, ширмачи, трясуны, писари, рыболовы, дубилы, резинщики, ломщики, кроты, театралы далеко не полный список тех, с кем ежедневно приходится сталкиваться «тихарям»
Сэмпл
Качество: WEBRip
Видео: 720x400 (1.80:1), 25 fps, XviD MPEG-4 ~1362 kbps avg, 0.19 bit/pixel
Аудио: 48 kHz, AC3 Dolby Digital, 2/0 (L,R) ch, ~192 kbps
Продолжительность: 12 x ~00:45:00
Общее
Полное имя : D:\Мои фильмы\Tihaja_ohota_01-30iz30_2014_XviD_WEBRip\Tihaja_ohota_01_iz_30_2014_WEBRip.avi
Формат : AVI
Формат/Информация : Audio Video Interleave
Размер файла : 445 Мбайт
Продолжительность : 44 м.
Общий поток : 1414 Кбит/сек
Программа кодирования : VirtualDubMod 1.5.10.3 | http://www.virtualdub-fr.org || (build 2550/release)
Библиотека кодирования : VirtualDub build 35491/release

Видео
Идентификатор : 0
Формат : MPEG-4 Visual
Профиль формата : Advanced Simple@L5
Параметр BVOP формата : 2
Параметр QPel формата : Нет
Параметр GMC формата : Без точки перехода
Параметр матрицы формата : Default (H.263)
Режим смешивания : Сжатый битовый поток
Идентификатор кодека : XVID
Идентификатор кодека/Подсказка : XviD
Продолжительность : 44 м.
Битрейт : 1212 Кбит/сек
Ширина : 720 пикселей
Высота : 400 пикселей
Соотношение сторон : 16:9
Частота кадров : 25,000 кадров/сек
Цветовое пространство : YUV
Субдискретизация насыщенности : 4:2:0
Битовая глубина : 8 бит
Тип развёртки : Прогрессивная
Метод сжатия : С потерями
Бит/(Пиксели*Кадры) : 0.168
Размер потока : 382 Мбайт (86%)
Библиотека кодирования : XviD 65

Аудио
Идентификатор : 1
Формат : AC-3
Формат/Информация : Audio Coding 3
Расширение режима : CM (complete main)
Параметр Endianness формата : Big
Идентификатор кодека : 2000
Продолжительность : 44 м.
Вид битрейта : Постоянный
Битрейт : 192 Кбит/сек
Каналы : 2 канала
Расположение каналов : Front: L R
Частота : 48,0 КГц
Битовая глубина : 16 бит
Метод сжатия : С потерями
Размер потока : 60,4 Мбайт (14%)
Выравнивание : Соединение по промежуткам
Продолжительность промежутка : 40 мс. (1,00 видеокадр)
Время предзагрузки промежутка : 512 мс.







реклама партнёра


Вернуться к началу
 Профиль Отправить личное сообщение  
 
   Похожие торренты   Автор   Торрент   Размер 
В этой теме нет новых непрочитанных сообщений. Охота на Унабомбера / Manhunt: Unabomber [S01] [Драма, криминал, 2017] WEBRip, Mvo [BaibaKo]

salma3

83 | 74

3.91 ГБ

В этой теме нет новых непрочитанных сообщений. Охота на Унабомбера / Manhunt: Unabomber [S01] [Драма, криминал, 2017] WEBRip, Mvo [IdeaFilm]

salma3

129 | 111

4.8 ГБ

В этой теме нет новых непрочитанных сообщений. Охота на Унабомбера / Manhunt: Unabomber [S01] [Драма, криминал, 2017] WEBRip 720p, Mvo [IdeaFilm]

salma3

47 | 61

17.81 ГБ

В этой теме нет новых непрочитанных сообщений. Охота на Унабомбера / Manhunt: Unabomber [S01] [Драма, криминал, 2017] WEBRip 1080p, Mvo [IdeaFilm]

salma3

30 | 33

27.38 ГБ

В этой теме нет новых непрочитанных сообщений. Охота на Унабомбера / Manhunt: Unabomber [S01] [Драма, криминал, 2017] WEBRip 720p, Mvo [BaibaKo]

salma3

45 | 52

11.13 ГБ

В этой теме нет новых непрочитанных сообщений. Созвездие Змееносец - ученик великого сыщика Пуаро (Алексей Меняйлов) [2014, комедия, криминал, детектив, WEBRip]

vairgin

11 | 3

266.1 МБ

В этой теме нет новых непрочитанных сообщений. Детектив / Thupparivaalan [Боевик, триллер, криминал, детектив, 2017] WEBRip 1080p, Dvo

salma3

35 | 45

6.31 ГБ


Начать новую тему Ответить на тему  [ 1 сообщение ] 




Для Мосгорсуда, Роскомнадзора и рекламодателей:: mosgorsud-torrent[собачка]yandex.ru