Торрент файл
скачать торрент магнет ссылка Добавлен: 01 сен 2014, 07:47
Размер: 13.02 ГБ
Сидеров: 2
Личеров: 2
Автор

СообщениеДобавлено: 01 сен 2014, 07:49 

Не в сети
Аватара пользователя
Дата регистрации:
26 ноя 2013, 12:32
Возраст: 56
Спасибо: 52 / 7
Сообщения: 66
Откуда: СССР
Год выпуска: 2013
Выпущено: Россия ,"Студия Панорама", "Форвард-фильм"
Жанр: Боевик, детектив, криминал
Перевод: Не требуется
Режиссер: Сергей Раевский, Денис Скворцов
В ролях: Александр Устюгов, Дмитрий Быковский-Ромашов, Всеволод Цурило, Андрей Родимов, Андрей Кузнецов, Светлана Смирнова-Кацагаджиева, Александр Марушев, Руслан Ибрагимов, Мария Иванова, Владимир Студеновский, Дмитрий Лебедев, Янина Соколовская, Евгения Устюгова, Сергей Лысов, Юлия Левакова, Роман Громадский, Марина Игнатова, Александр Лисицын, Анатолий Узденский, Елизавета Ковалева, Олег Вебер, Ольга Иванова, Сергей Фёдоров, Павел Юлку, Антон Виноградов, Алексей Лысенко, Дмитрий Белов, Даниил Эйдлин, Ольга Иванова, Татьяна Гончарова, Сергей Бубнов, Владимир Крылов, Мурад Султаниязов, Сергей Магиленич, Александр Сорокин, Максим Крупски
О фильме: В новых сериях сотрудники отдела по расследованию умышленных убийств ГУ МВД Санкт-Петербурга, уже аттестованные как полицейские, продолжат борьбу с наиболее опасными представителями криминальной изнанки города и будут вынуждены вновь столкнуться с так называемыми "оборотнями в погонах", которые способны причинить не меньший вред, чем закоренелые преступники.
Сэмпл
Качество: WEBRip
Видео: 720x400 (1.80:1), 25 fps, XviD MPEG-4 ~1484 kbps avg, 0.21 bit/pixel
Аудио: 48 kHz, AC3 Dolby Digital, 2/0 (L,R) ch, ~192 kbps
Продолжительность: 24 x ~00:46:00

01.Змея в траве. Часть 1
02.Змея в траве. Часть 2
03.Змея в траве. Часть 3
04.Змея в траве. Часть 4
05.Каратель. Часть 1
06.Каратель. Часть 2
07.Каратель. Часть 3
08.Каратель. Часть 4
09.Гонка на выживание. Часть 1
10.Гонка на выживание. Часть 2
11.Гонка на выживание. Часть 3
12.Гонка на выживание. Часть 4
13.Граница зла. Часть 1
14.Граница зла. Часть 2
15.Граница зла. Часть 3
16.Граница зла. Часть 4
17. Невские партизаны. Часть 1
18. Невские партизаны. Часть 2
19. Невские партизаны. Часть 3
20. Невские партизаны. Часть 4
21. Корм для акулы. Часть 1
22. Корм для акулы. Часть 2
23. Корм для акулы. Часть 3
24. Корм для акулы. Часть 4
Общее
Полное имя : D:\Mentovskie_vojny_S7_01-24iz24_2013_XviD_WEBRip\Mentovskie_vojny_S7_01_iz_24_2013_WEBRip.avi
Формат : AVI
Формат/Информация : Audio Video Interleave
Размер файла : 555 Мбайт
Продолжительность : 46 м.
Общий поток : 1686 Кбит/сек
Библиотека кодирования : VirtualDub build 35491/release

Видео
Идентификатор : 0
Формат : MPEG-4 Visual
Профиль формата : Advanced Simple@L5
Параметр BVOP формата : 2
Параметр QPel формата : Нет
Параметр GMC формата : Без точки перехода
Параметр матрицы формата : Default (H.263)
Режим смешивания : Сжатый битовый поток
Идентификатор кодека : XVID
Идентификатор кодека/Подсказка : XviD
Продолжительность : 46 м.
Битрейт : 1485 Кбит/сек
Ширина : 720 пикселей
Высота : 400 пикселей
Соотношение сторон : 16:9
Частота кадров : 25,000 кадров/сек
Цветовое пространство : YUV
Субдискретизация насыщенности : 4:2:0
Битовая глубина : 8 бит
Тип развёртки : Прогрессивная
Метод сжатия : С потерями
Бит/(Пиксели*Кадры) : 0.206
Размер потока : 489 Мбайт (88%)
Библиотека кодирования : XviD 65

Аудио
Идентификатор : 1
Формат : AC-3
Формат/Информация : Audio Coding 3
Расширение режима : CM (complete main)
Параметр Endianness формата : Big
Идентификатор кодека : 2000
Продолжительность : 46 м.
Вид битрейта : Постоянный
Битрейт : 192 Кбит/сек
Каналы : 2 канала
Расположение каналов : Front: L R
Частота : 48,0 КГц
Битовая глубина : 16 бит
Метод сжатия : С потерями
Размер потока : 63,2 Мбайт (11%)
Выравнивание : Соединение по промежуткам
Продолжительность промежутка : 40 мс. (1,00 видеокадр)
Время предзагрузки промежутка : 512 мс.







реклама партнёра


Вернуться к началу
 Профиль Отправить личное сообщение  
 
   Похожие торренты   Автор   Торрент   Размер 
В этой теме нет новых непрочитанных сообщений. Ментовские войны 9 [S09] (Денис Скворцов) [Боевик, детектив, криминал, 2015] HDTVRip 720p

Dracon

735 | 283

24.89 ГБ

В этой теме нет новых непрочитанных сообщений. Ментовские войны 9 [S09] (Денис Скворцов) [Боевик, детектив, криминал, 2015] HDTV 1080i

Dracon

538 | 297

42.29 ГБ

В этой теме нет новых непрочитанных сообщений. Ментовские войны 10 [10x01-14 из 16] [детектив, 2016] SATRip-AVC

marya111

60 | 55

7.85 ГБ

В этой теме нет новых непрочитанных сообщений. Ментовские войны [Сезон 8 серии 1-15 из 16] [Криминал, 2014] SATRip

Dracon

49 | 6

8.95 ГБ

В этой теме нет новых непрочитанных сообщений. Ментовские войны [Сезон 8 серии 16] [Криминал, 2014] SATRip

Dracon

10 | 2

616.73 МБ

В этой теме нет новых непрочитанных сообщений. Ментовские войны 9 [09х01-16 из 16] (Денис Скворцов) [Криминал, 2015] SATRip

Dracon

239 | 50

9.77 ГБ

В этой теме нет новых непрочитанных сообщений. Ментовские войны [1-9 сезоны: 1-124 серии из 124 + Спин-оффы + 2 Фильма о фильме] ( Павел Мальков, Егор Абросимов, Сергей Раевский, Денис Скворцов и другие) [Криминал, 2004-2015] DVDRip

Dracon

14 | 23

79.84 ГБ


Начать новую тему Ответить на тему  [ 1 сообщение ] 




Для Мосгорсуда, Роскомнадзора и рекламодателей:: mosgorsud-torrent[собачка]yandex.ru