Торрент файл
скачать торрент магнет ссылка Добавлен: 31 авг 2014, 12:22
Размер: 17.01 ГБ
Сидеров: 1
Личеров: 5
Автор

СообщениеДобавлено: 31 авг 2014, 12:22 

Не в сети
Супермодератор
Аватара пользователя
Дата регистрации:
15 фев 2012, 16:44
Возраст: 27
Спасибо: 5139 / 2090
Сообщения: 17432
Год выхода: 2014
Жанр: Драма, детектив
Режиссер: Билл Хабер
В ролях: Саша Александер, Энджи Хэрмон, Лоррейн Бракко, Брюс МакГилл, Дженнифер Холлэнд, Джэйсон Блэр, Том Бауэр, Джордан Бриджес, Мариса Рамирез, Кристал Рид, Ли Томпсон Янг, Брайан Гудман, Рик Чэмберс, Райан Джеймс Нолан, Чазз Пальминтери, Майкл Масси, Дэррил Алан Рид, Билли Бёрк, Донни Уолберг, Колин Эглсфилд, Крис Батлер, Джек Конли, Омар Дж. Дорси, Джон Доумен

О фильме:
Добро пожаловать в Бостон, штат Массачусетс, где живут и работают две потрясающие женщины: детектив убойного отдела полиции Бостона Джейн Риццоли и старший судмедэксперт Мора Айлс.
Они совершенно разные, но дополняют достоинства друг друга, выполняя любимую работу: раскрытие убийств. Экранизация серии романов Тесс Герритсен.



Страна: США
Продолжительность: ~ 00:42:30
Перевод: профессиональный (многоголосый, закадровый) - NewStudio

Файл
Кодек: x264
Качество: WEB-DL 1080p
Видео: AVC, 1916x1076 (16:9), 23.976 fps, ~ 5000 Kbps (0.099 bit/pixel)
Звук:
Аудио 1: Russian: 48 kHz, AC3, 3/2 (L,C,R,l,r) + LFE ch, ~384.00 kbps avg
Аудио 2: English: 48 kHz, AC3, 3/2 (L,C,R,l,r) + LFE ch, ~384.00 kbps avg

01. Новый день / A New Day
02. Прощай / Goodbye
03. Too Good to Be True
04. Судный день / Doomsday
05. Идеальный план / The Best Laid Plans
06. Нокаут / Knockout
07. Кельты Бостона / Boston Keltic
08. Потерять и найти / Lost & Found
09. Взяться всем миром / It Takes a Village
10. Восставший из пепла / Phoenix Rising

Код:
Общее
Уникальный идентификатор                 : 206816627645193637965252595919307028990 (0x9B976F019546B6058931FB4D131639FE)
Полное имя                               : Rizzoli & Isles 5 - NewStudio.TV [1080p]Rizzoli.&.Isles.s05e07.WEBDL.1080p.NewStudio.TV.mkv
Формат                                   : Matroska
Версия формата                           : Version 2
Размер файла                             : 1,71 Гбайт
Продолжительность                        : 42 м.
Общий поток                              : 5801 Кбит/сек
Дата кодирования                         : UTC 2014-08-11 18:50:08
Программа кодирования                    : mkvmerge v2.9.9 ('Tutu') built on Nov 25 2009 21:13:32
Библиотека кодирования                   : libebml v0.7.9 + libmatroska v0.8.1

Видео
Идентификатор                            : 1
Формат                                   : AVC
Формат/Информация                        : Advanced Video Codec
Профиль формата                          : High@L4.0
Параметр CABAC формата                   : Да
Параметр ReFrames формата                : 4 кадра
Идентификатор кодека                     : V_MPEG4/ISO/AVC
Продолжительность                        : 42 м.
Битрейт                                  : 4917 Кбит/сек
Ширина                                   : 1916 пикселей
Высота                                   : 1076 пикселей
Соотношение сторон                       : 16:9
Режим частоты кадров                     : Постоянный
Частота кадров                           : 23,976 кадра/сек
Цветовое пространство                    : YUV
Субдискретизация насыщенности            : 4:2:0
Битовая глубина                          : 8 бит
Тип развёртки                            : Прогрессивная
Бит/(Пиксели*Кадры)                      : 0.099
Размер потока                            : 1,45 Гбайт (85%)
Язык                                     : English
Default                                  : Нет
Forced                                   : Нет
Основные цвета                           : BT.709
Характеристики трансфера                 : BT.709
Коэффициенты матрицы                     : BT.709

Аудио #1
Идентификатор                            : 2
Формат                                   : AC-3
Формат/Информация                        : Audio Coding 3
Расширение режима                        : CM (complete main)
Параметр Endianness формата              : Big
Идентификатор кодека                     : A_AC3
Продолжительность                        : 42 м.
Вид битрейта                             : Постоянный
Битрейт                                  : 384 Кбит/сек
Каналы                                   : 6 каналов
Расположение каналов                     : Front: L C R, Side: L R, LFE
Частота                                  : 48,0 КГц
Битовая глубина                          : 16 бит
Метод сжатия                             : С потерями
Размер потока                            : 116 Мбайт (7%)
Язык                                     : Russian
Default                                  : Да
Forced                                   : Да

Аудио #2
Идентификатор                            : 3
Формат                                   : AC-3
Формат/Информация                        : Audio Coding 3
Расширение режима                        : CM (complete main)
Параметр Endianness формата              : Big
Идентификатор кодека                     : A_AC3
Продолжительность                        : 42 м.
Вид битрейта                             : Постоянный
Битрейт                                  : 384 Кбит/сек
Каналы                                   : 6 каналов
Расположение каналов                     : Front: L C R, Side: L R, LFE
Частота                                  : 48,0 КГц
Битовая глубина                          : 16 бит
Метод сжатия                             : С потерями
Размер потока                            : 116 Мбайт (7%)
Язык                                     : English
Default                                  : Нет
Forced                                   : Нет


_________________



реклама партнёра


Вернуться к началу
 Профиль Отправить личное сообщение  
 
   Похожие торренты   Автор   Торрент   Размер 
В этой теме нет новых непрочитанных сообщений. Риццоли и Айлс / Rizzoli & Isles [S07] [Драма, детектив, криминал, 2016] WEB-DL 1080p, Mvo [NewStudio]

salma3

1 | 2

22.6 ГБ

В этой теме нет новых непрочитанных сообщений. Риццоли и Айлс / Rizzoli & Isles [05x01-16 из 18] (Билл Хабер) [2014-2015, Драма, детектив, WEB-DL 720p | NewStudio]

Nickolas3435

3 | 3

22.74 ГБ

В этой теме нет новых непрочитанных сообщений. Риццоли и Айлс / Rizzoli & Isles / 5 сезон 1-18 серии из 18 [драма, криминал, детектив, 2014-2015] WEB-DLRip, Mvo [NewStudio]

salma3

7 | 10

14.77 ГБ

В этой теме нет новых непрочитанных сообщений. Риццоли и Айлс / Rizzoli & Isles [S07] [Драма, детектив, криминал, 2016] WEB-DL 720p, Mvo [NewStudio]

salma3

0 | 2

18.4 ГБ

В этой теме нет новых непрочитанных сообщений. Риццоли и Айлс / Rizzoli & Isles [07x01-09] [Драма, детектив, 2016] WEB-DLRip, Mvo [NewStudio]

salma3

74 | 37

4.73 ГБ

В этой теме нет новых непрочитанных сообщений. Риццоли и Айлс / Rizzoli & Isles / 6 сезон 1-18 серии из 18 [Драма, детектив, 2015] WEB-DLRip, Mvo [NewStudio]

salma3

77 | 50

9.67 ГБ

В этой теме нет новых непрочитанных сообщений. Риццоли и Айлс / Rizzoli & Isles [S01-07] [Драма, детектив, криминал, 2010-2016] WEB-DLRip, Mvo [NewStudio]

salma3

6 | 39

53.06 ГБ


Начать новую тему Ответить на тему  [ 1 сообщение ] 




Для Мосгорсуда, Роскомнадзора и рекламодателей:: mosgorsud-torrent[собачка]yandex.ru