Торрент файл
скачать торрент магнет ссылка Добавлен: 31 авг 2014, 10:39
Размер: 8.67 ГБ
Сидеров: 2
Личеров: 2
Автор

СообщениеДобавлено: 31 авг 2014, 10:39 

Не в сети
Аватара пользователя
Дата регистрации:
26 ноя 2013, 12:32
Возраст: 56
Спасибо: 52 / 7
Сообщения: 66
Откуда: СССР
Год выпуска: 2013
Выпущено: Россия ,Студия «Панорама», ООО «Форвард-Фильм»
Жанр: Остросюжетный детектив, криминал
Перевод: Не требуется
Режиссер: Алан Дзоциев
В ролях: Владимир Ильин, Денис Шевченко, Андрей Феськов, Виталий Коваленко, Михаил Киреев, Елизавета Прилепская, Хельга Филиппова, Александр Марушев
О фильме: С момента появления в отделе государственной защиты опытного начальника Виталия Субботы в жизни его подчиненных появилось много нового. Благодаря нестандартным методам ведения дел и высокому профессионализму ему удалось заслужить уважение коллег, которые поначалу приняли назначенца весьма настороженно. И даже давняя ссора полковника Субботы с генералом Киреевым осталась в далеком прошлом. Одной из важных проблем, по мнению нового руководителя, по-прежнему остается опасность утечки информации о пристанище и новых данных нуждающихся в защите свидетелей. В связи с этим Суббота предлагает Кирееву ввести новую систему персональной ответственности оперативников за своих подопечных. Теперь каждый из подчиненных полковника получает собственного «клиента», которого он должен будет лично опекать по своему индивидуальному плану. Смогут ли служители закона играть по новым правилам? Новые методы борьбы с преступниками, новые способы защиты свидетелей, предательство, любовь и смертельные опасности, поджидающие оперативников на каждом шагу...

Сэмпл

Качество: SATRip
Видео: 704x400 (1.76:1), 25 fps, XviD MPEG-4 ~1537 kbps avg, 0.22 bit/pixel
Аудио: 48 kHz, AC3 Dolby Digital, 2/0 (L,R) ch, ~192 kbps
Продолжительность: 16 x ~00:45:00
Общее
Полное имя : D:\Gosudarstvennaja_zawita_S3_01-16iz16_2013_XviD_SATRip\Gosudarstvennaja_zawita_S3_01_iz_16_2013_SATRip.avi
Формат : AVI
Формат/Информация : Audio Video Interleave
Размер файла : 555 Мбайт
Продолжительность : 44 м.
Общий поток : 1739 Кбит/сек
Программа кодирования : VirtualDubMod 1.5.10.2 (build 2540/release)
Библиотека кодирования : VirtualDub build 35491/release

Видео
Идентификатор : 0
Формат : MPEG-4 Visual
Профиль формата : Advanced Simple@L5
Параметр BVOP формата : 2
Параметр QPel формата : Нет
Параметр GMC формата : Без точки перехода
Параметр матрицы формата : Default (H.263)
Режим смешивания : Сжатый битовый поток
Идентификатор кодека : XVID
Идентификатор кодека/Подсказка : XviD
Продолжительность : 44 м.
Битрейт : 1538 Кбит/сек
Ширина : 704 пикселя
Высота : 400 пикселей
Соотношение сторон : 16:9
Частота кадров : 25,000 кадров/сек
Цветовое пространство : YUV
Субдискретизация насыщенности : 4:2:0
Битовая глубина : 8 бит
Тип развёртки : Прогрессивная
Метод сжатия : С потерями
Бит/(Пиксели*Кадры) : 0.218
Размер потока : 491 Мбайт (88%)
Библиотека кодирования : XviD 65

Аудио
Идентификатор : 1
Формат : AC-3
Формат/Информация : Audio Coding 3
Расширение режима : CM (complete main)
Параметр Endianness формата : Big
Идентификатор кодека : 2000
Продолжительность : 44 м.
Вид битрейта : Постоянный
Битрейт : 192 Кбит/сек
Каналы : 2 канала
Расположение каналов : Front: L R
Частота : 48,0 КГц
Битовая глубина : 16 бит
Метод сжатия : С потерями
Размер потока : 61,3 Мбайт (11%)
Выравнивание : Соединение по промежуткам
Продолжительность промежутка : 40 мс. (1,00 видеокадр)
Время предзагрузки промежутка : 512 мс.





реклама партнёра


Вернуться к началу
 Профиль Отправить личное сообщение  
 
   Похожие торренты   Автор   Торрент   Размер 
В этой теме нет новых непрочитанных сообщений. Шеф-2 [32 из 32] [Детектив, криминал, 2013] SATRip

iopuk60

0 | 2

17.36 ГБ

В этой теме нет новых непрочитанных сообщений. Дело врачей [01-68] [Криминал, детектив, 2013] SATRip

Ανδρέας

0 | 2

33.34 ГБ

В этой теме нет новых непрочитанных сообщений. Сёмин. Возмездие [16 из 16] [Детектив, криминал,2013] SATRip

iopuk60

0 | 2

8.68 ГБ

В этой теме нет новых непрочитанных сообщений. Литейный 4 [08х01-30 из 30] [Детектив, криминал, 2013] SATRip

Dracon

51 | 26

18 ГБ

В этой теме нет новых непрочитанных сообщений. Гончие-6 [1-8 серия из 8] [детектив, криминал, 2013] SATRip

Dracon

0 | 3

4.03 ГБ

В этой теме нет новых непрочитанных сообщений. Клянёмся защищать [8 из 8] [Детектив, криминал,2013] SATRip

iopuk60

0 | 4

4.34 ГБ

В этой теме нет новых непрочитанных сообщений. Паутина-7 [01-24 из 24] [Детектив, криминал, 2013-2014] SATRip

Dracon

6 | 3

12.91 ГБ


Начать новую тему Ответить на тему  [ 1 сообщение ] 




Для Мосгорсуда, Роскомнадзора и рекламодателей:: mosgorsud-torrent[собачка]yandex.ru