Торрент файл
скачать торрент магнет ссылка Добавлен: 30 авг 2014, 10:10
Размер: 8.68 ГБ
Сидеров: 0
Личеров: 2
Автор

СообщениеДобавлено: 30 авг 2014, 10:17 

Не в сети
Аватара пользователя
Дата регистрации:
26 ноя 2013, 12:32
Возраст: 56
Спасибо: 52 / 7
Сообщения: 66
Откуда: СССР
Год выпуска: 2013
Выпущено: Россия ,DT production
Жанр: Криминальный фильм
Перевод: Не требуется
Режиссер: Армен Арутюнян-Елецкий, Михаил Жерневский
В ролях: Семён Шкаликов, Сергей Угрюмов, Сергей Газаров, Андрей Соколов, Виктория Толстоганова, Дарья Мороз, Михаил Трухин, Тимофей Трибунцев, Евгений Миллер, Михаил Ефремов, Павел Майков, Сергей Чирков, Александр Робак, Елена Аросьева, Михаил Чепуров, Павел Абраменков, Игорь Литовкин (II), Александр Поляков (IV), Даниил Семченков, Максим Студеновский, Кирилл Нагиев, Михаил Скачков, Григорий Райдлер, Константин Константинов (II), Василий Брыков, Андрей Лебедев, Анатолий Кот, Николай Денисов (II), Алексей Ильин, Сергей Шеховцов, Андрей Анкудинов, Антон Белый, Дмитрий Проданов
О фильме: Расследованием преступлений, совершаемых сотрудниками правоохранительных органов, занимается специальная служба – главное управление собственной безопасности. Их работа точно такая же, как и у остальных "обычных" полицейских: сбор данных, оперативная разработка, слежка, прослушка, опросы свидетелей, возбуждение уголовных дел... с одной лишь разницей - сотрудники собственной безопасности работают против своих коллег. Их никто не любит, их только боятся. Они - гласно внедренный в правоохранительную систему страны чужеродный элемент. Несколько офицеров собственной безопасности работают в атмосфере постоянного недоверия и подозрительности, где каждый шаг нужно просчитывать и продумывать со всех сторон, действовать максимально деликатно и в то же время эффективно. Их успехи только увеличивают пропасть между ними и обычными людьми в форме. В такой ситуации тотального отчуждения коллеги сплачиваются еще сильнее, становятся настоящей командой, без слабых мест...
Сэмпл
Качество: DVDRip
Видео: 720x384 (1.88:1), 25 fps, XviD MPEG-4 ~1393 kbps avg, 0.20 bit/pixel
Аудио: 48 kHz, AC3 Dolby Digital, 2/0 (L,R) ch, ~192 kbps
Продолжительность: 16 x ~00:49:00
Общее
Полное имя : D:\Departament_01-16iz16_2012_XviD_DVDRip\Departament_01_iz_16_2012__DVDRip.avi
Формат : AVI
Формат/Информация : Audio Video Interleave
Размер файла : 556 Мбайт
Продолжительность : 48 м.
Общий поток : 1596 Кбит/сек
Программа кодирования : VirtualDubModRus 1.5.10.2 (build 2542/release)
Библиотека кодирования : VirtualDub build 35491/release

Видео
Идентификатор : 0
Формат : MPEG-4 Visual
Профиль формата : Advanced Simple@L5
Параметр BVOP формата : 2
Параметр QPel формата : Нет
Параметр GMC формата : Без точки перехода
Параметр матрицы формата : Default (H.263)
Режим смешивания : Сжатый битовый поток
Идентификатор кодека : XVID
Идентификатор кодека/Подсказка : XviD
Продолжительность : 48 м.
Битрейт : 1394 Кбит/сек
Ширина : 720 пикселей
Высота : 384 пикселя
Соотношение сторон : 1,85:1
Частота кадров : 25,000 кадров/сек
Цветовое пространство : YUV
Субдискретизация насыщенности : 4:2:0
Битовая глубина : 8 бит
Тип развёртки : Прогрессивная
Метод сжатия : С потерями
Бит/(Пиксели*Кадры) : 0.202
Размер потока : 485 Мбайт (87%)
Библиотека кодирования : XviD 65

Аудио
Идентификатор : 1
Формат : AC-3
Формат/Информация : Audio Coding 3
Расширение режима : CM (complete main)
Параметр Endianness формата : Big
Идентификатор кодека : 2000
Продолжительность : 48 м.
Вид битрейта : Постоянный
Битрейт : 192 Кбит/сек
Каналы : 2 канала
Расположение каналов : Front: L R
Частота : 48,0 КГц
Битовая глубина : 16 бит
Метод сжатия : С потерями
Размер потока : 66,9 Мбайт (12%)
Выравнивание : Соединение по промежуткам
Продолжительность промежутка : 40 мс. (1,00 видеокадр)
Время предзагрузки промежутка : 512 мс.





реклама партнёра


Вернуться к началу
 Профиль Отправить личное сообщение  
 
   Похожие торренты   Автор   Торрент   Размер 
В этой теме нет новых непрочитанных сообщений. Не женское дело [01-08 из 08] [Криминальный фильм, мелодрама, 2013] SATRip

Dracon

150 | 25

4.15 ГБ

В этой теме нет новых непрочитанных сообщений. Вместе навсегда (Таиланд) [01-04 из 04] [Боевик, криминальный фильм, 2013] SATRip

Dracon

184 | 20

2.01 ГБ

В этой теме нет новых непрочитанных сообщений. Под прикрытием [1-12 из 12] [2012, Криминальный фильм] DVDRip

iopuk60

0 | 4

8.74 ГБ

В этой теме нет новых непрочитанных сообщений. Умельцы [01-16 из 16] [Криминальный фильм, 2014] SATRip

Dracon

1531 | 289

9.39 ГБ

В этой теме нет новых непрочитанных сообщений. Под прикрытием [01-12 из 12] [Криминальный фильм, 2012] WEBRip

iopuk60

0 | 2

8.44 ГБ

В этой теме нет новых непрочитанных сообщений. Умельцы [01-06 из 16] (Всеволод Аравин) [2014, Криминальный фильм, SATRip]

Nickolas3435

193 | 9

3.53 ГБ

В этой теме нет новых непрочитанных сообщений. Курортная полиция [01-20 из 20] [Детектив, криминальный фильм, 2014] SATRip

Dracon

2 | 3

11.93 ГБ


Начать новую тему Ответить на тему  [ 1 сообщение ] 




Для Мосгорсуда, Роскомнадзора и рекламодателей:: mosgorsud-torrent[собачка]yandex.ru