Торрент файл
скачать торрент магнет ссылка Добавлен: 28 авг 2014, 13:36
Размер: 13.01 ГБ
Сидеров: 2
Личеров: 5
Автор

СообщениеДобавлено: 28 авг 2014, 13:40 

Не в сети
Аватара пользователя
Дата регистрации:
26 ноя 2013, 12:32
Возраст: 56
Спасибо: 52 / 7
Сообщения: 66
Откуда: СССР
Год выпуска: 2012
Выпущено: Россия ,Украина ,Star Media
Жанр: Детектив, криминал
Перевод: Не требуется
Режиссер: Олег Туранский, Олег Филипенко
В ролях: Ярослав Бойко, Владимир Стеклов, Константин Стрельников, Егор Клейменов, Анна Казючиц, Анатолий Зиновенко, Дмитрий Суржиков, Анна Донченко, Алексей Тритенко, Михаил Жонин, Владимир Осадчий, Станислав Боклан, Владимир Горянский, Владимир Ямненко, Михаил Романов, Валерий Сковронский, Валентин Касьян, Алексей Барбинов, Евгений Арабаджийский, Алла Мартынюк, Олег Масленников, Константин Чернокрылюк, Римма Зюбина, Тамара Яценко, Андрей Исаенко, Сергей Калантай, Анатолий Приймак, Ирина Барбинова, Алексей Цуркан, Сергей Шляхтюк, Сергей Коршиков, Владимир Беляев, Александра Киреева
О фильме: Такие кварталы, как Гарлем, раньше можно было увидеть только в голливудских боевиках. Никто не думал, что они могут появиться и у нас. Гарлем – настоящее гетто в одном из крупных российских городов. Здесь почти открыто торгуют наркотиками и перепродают краденое. Школьные учителя боятся своих учеников, ведь те способны убить за плохую оценку. Местные стражи правопорядка не рискуют в позднее время суток лишний раз появляться на его улицах, а жители так привыкли к установленным правилам игры, что кажется, ничто и никогда не сможет заставить их иначе смотреть на происходящее вокруг.
Сэмпл
Качество: SATRip
Видео: 704x400 (1.76:1), 25 fps, XviD MPEG-4 ~1486 kbps avg, 0.21 bit/pixel
Аудио: 48 kHz, AC3 Dolby Digital, 2/0 (L,R) ch, ~192 kbps
Продолжительность: 24 x ~00:45:00
"]
Общее
Полное имя : D:\Brat_za_brata_S2_01-24iz24_2012_XviD_SATRip\Brat_za_brata_S2_01_iz_24_2012_SATRip.avi
Формат : AVI
Формат/Информация : Audio Video Interleave
Размер файла : 555 Мбайт
Продолжительность : 45 м.
Общий поток : 1688 Кбит/сек
Программа кодирования : VirtualDubMod 1.5.10.3 | http://www.virtualdub-fr.org || (build 2550/release)
Библиотека кодирования : VirtualDub build 35491/release

Видео
Идентификатор : 0
Формат : MPEG-4 Visual
Профиль формата : Advanced Simple@L5
Параметр BVOP формата : 2
Параметр QPel формата : Нет
Параметр GMC формата : Без точки перехода
Параметр матрицы формата : Default (H.263)
Режим смешивания : Сжатый битовый поток
Идентификатор кодека : XVID
Идентификатор кодека/Подсказка : XviD
Продолжительность : 45 м.
Битрейт : 1487 Кбит/сек
Ширина : 704 пикселя
Высота : 400 пикселей
Соотношение сторон : 16:9
Частота кадров : 25,000 кадров/сек
Цветовое пространство : YUV
Субдискретизация насыщенности : 4:2:0
Битовая глубина : 8 бит
Тип развёртки : Прогрессивная
Метод сжатия : С потерями
Бит/(Пиксели*Кадры) : 0.211
Размер потока : 489 Мбайт (88%)
Библиотека кодирования : XviD 65

Аудио
Идентификатор : 1
Формат : AC-3
Формат/Информация : Audio Coding 3
Расширение режима : CM (complete main)
Параметр Endianness формата : Big
Идентификатор кодека : 2000
Продолжительность : 45 м.
Вид битрейта : Постоянный
Битрейт : 192 Кбит/сек
Каналы : 2 канала
Расположение каналов : Front: L R
Частота : 48,0 КГц
Битовая глубина : 16 бит
Метод сжатия : С потерями
Размер потока : 63,1 Мбайт (11%)
Выравнивание : Соединение по промежуткам
Продолжительность промежутка : 40 мс. (1,00 видеокадр)
Время предзагрузки промежутка : 512 мс.





реклама партнёра


Вернуться к началу
 Профиль Отправить личное сообщение  
 
   Похожие торренты   Автор   Торрент   Размер 
В этой теме нет новых непрочитанных сообщений. Брат за брата [03х01-30 из 30] [Детектив, криминал, 2014] SATRip

Dracon

6 | 39

17.75 ГБ

В этой теме нет новых непрочитанных сообщений. National Geographic. Королевство обезьян: Брат на брата / Wild Kingdom Of The Apes [документальный, 2014] HDTVRip, Dub

salma3

20 | 3

698.45 МБ

В этой теме нет новых непрочитанных сообщений. Брат и сестра / Frère et soeur [Комедия, 2012] SATRip, Mvo [Red Media]

salma3

30 | 5

1.41 ГБ

В этой теме нет новых непрочитанных сообщений. Шеф [24 из 24] [Детектив, криминал, 2012] SATRip

iopuk60

0 | 2

13.02 ГБ

В этой теме нет новых непрочитанных сообщений. Дознаватель [24 из 24] [Детектив, криминал, 2012] SATRip

iopuk60

0 | 2

13.03 ГБ

В этой теме нет новых непрочитанных сообщений. Телохранитель 4 [16 из 16] [Детектив, криминал, 2012] SATRip

iopuk60

0 | 2

8.68 ГБ

В этой теме нет новых непрочитанных сообщений. По горячим следам-2 [16 из 16] [Детектив,криминал,2012] SATRip

iopuk60

1 | 121

8.67 ГБ


Начать новую тему Ответить на тему  [ 1 сообщение ] 




Для Мосгорсуда, Роскомнадзора и рекламодателей:: mosgorsud-torrent[собачка]yandex.ru