Торрент файл
скачать торрент магнет ссылка Добавлен: 25 авг 2014, 09:54
Размер: 15.43 ГБ
Сидеров: 0
Личеров: 2
Автор

СообщениеДобавлено: 25 авг 2014, 09:54 

Не в сети
Зам. Админа
Аватара пользователя
Дата регистрации:
02 дек 2010, 12:39
Спасибо: 12461 / 214
Сообщения: 27968
Год выхода: 2014
Жанр: Драма,Криминал
Режиссер: Джон Дэвид Коулз, Энтони Хемингуэй, Кари Скогланд, Джордж Тиллман мл.
В ролях: Луис Рамос, Адам Хасс, Люси Уолтерс, Винисиус Мачадо, Лесли Лопез, Кэтрин Нардуччи, Шэйн Джонсон, Дж.Р. Рамирез, Омари Хардвик, Лела Лорен

О фильме:
Богатый владелец ночного клуба в Нью-Йорке хочет выбиться в городскую элиту и ведет двойную жизнь, торгуя наркотиками.


Качество: WEB-DL [720p]
Видео: AVC, 1280x716, ~ 4000 Кбит/с, 23.976 fps
Аудио1: AC3, 384 Кбит/с, 6 ch, 48.0 КГц Russian
Аудио2: AC3, 384 Кбит/с, 6 ch, 48.0 КГц English
Продолжительность: 8 x ~ 00:58:00
Перевод: Профессиональный (многоголосный) Amedia
Субтитры: Russian, English

Общее
Уникальный идентификатор                 : 249743927501118782581804971177060035161 (0xBBE2EE4B8D3E5E69ABBF2DBC37CB6A59)
Формат                                   : Matroska
Версия формата                           : Version 4 / Version 2
Продолжительность                        : 57 м.
Общий поток                              : 2031 Кбит/сек
Название фильма                          : Power S01E01 (2014) - Not Exactly How We Planned
Дата кодирования                         : UTC 2014-07-03 17:31:21
Программа кодирования                    : mkvmerge v6.6.0 ('The Edge Of The In Between') built on Dec  1 2013 17:55:00
Библиотека кодирования                   : libebml v1.3.0 + libmatroska v1.4.1

Видео
Идентификатор                            : 1
Формат                                   : AVC
Формат/Информация                        : Advanced Video Codec
Профиль формата                          : High@L3.1
Параметр CABAC формата                   : Нет
Параметр ReFrames формата                : 2 кадра
Параметр GOP формата                     : N=1
Идентификатор кодека                     : V_MPEG4/ISO/AVC
Продолжительность                        : 57 м.
Битрейт                                  : 4222 Кбит/сек
Ширина                                   : 1280 пикселей
Высота                                   : 716 пикселей
Соотношение сторон                       : 16:9
Режим частоты кадров                     : Постоянный
Частота кадров                           : 23,976 кадра/сек
Цветовое пространство                    : YUV
Субдискретизация насыщенности            : 4:2:0
Битовая глубина                          : 8 бит
Тип развёртки                            : Прогрессивная
Бит/(Пиксели*Кадры)                      : 0.056
Размер потока                            : 506 Мбайт (60%)
Заголовок                                : Release for HDCLUB
Язык                                     : English
Default                                  : Да
Forced                                   : Нет
Основные цвета                           : BT.709
Характеристики трансфера                 : BT.709
Коэффициенты матрицы                     : BT.709

Аудио #1
Идентификатор                            : 2
Формат                                   : AC-3
Формат/Информация                        : Audio Coding 3
Расширение режима                        : CM (complete main)
Параметр Endianness формата              : Big
Идентификатор кодека                     : A_AC3
Продолжительность                        : 57 м.
Вид битрейта                             : Постоянный
Битрейт                                  : 384 Кбит/сек
Каналы                                   : 6 каналов
Расположение каналов                     : Front: L C R, Side: L R, LFE
Частота                                  : 48,0 КГц
Битовая глубина                          : 16 бит
Метод сжатия                             : С потерями
Размер потока                            : 159 Мбайт (19%)
Заголовок                                : DD 5.1 @ 384 kbps - Amedia
Язык                                     : Russian
Default                                  : Да
Forced                                   : Нет

Аудио #2
Идентификатор                            : 3
Формат                                   : AC-3
Формат/Информация                        : Audio Coding 3
Расширение режима                        : CM (complete main)
Параметр Endianness формата              : Big
Идентификатор кодека                     : A_AC3
Продолжительность                        : 57 м.
Вид битрейта                             : Постоянный
Битрейт                                  : 384 Кбит/сек
Каналы                                   : 6 каналов
Расположение каналов                     : Front: L C R, Side: L R, LFE
Частота                                  : 48,0 КГц
Битовая глубина                          : 16 бит
Метод сжатия                             : С потерями
Размер потока                            : 159 Мбайт (19%)
Заголовок                                : DD 5.1 @ 384 kbps - Original
Язык                                     : English
Default                                  : Нет
Forced                                   : Нет

Текст #1
Идентификатор                            : 4
Формат                                   : UTF-8
Идентификатор кодека                     : S_TEXT/UTF8
Идентификатор кодека/Информация          : UTF-8 Plain Text
Заголовок                                : SRT @ Amedia
Язык                                     : Russian
Default                                  : Нет
Forced                                   : Нет

Текст #2
Идентификатор                            : 5
Формат                                   : UTF-8
Идентификатор кодека                     : S_TEXT/UTF8
Идентификатор кодека/Информация          : UTF-8 Plain Text
Заголовок                                : SRT @ Original SDH
Язык                                     : English
Default                                  : Нет
Forced                                   : Нет






реклама партнёра


Вернуться к началу
 Профиль  
 
   Похожие торренты   Автор   Торрент   Размер 
В этой теме нет новых непрочитанных сообщений. Власть в ночном городе / Power [S01] [Драма, Криминал, 2014] WEB-DL 1080p, Mvo+Sub

Dracon

19 | 16

18 ГБ

В этой теме нет новых непрочитанных сообщений. Власть в ночном городе / Power [S2] (Джон Дэвид Коулз, Энтони Хемингуэй, Джордж Тиллман мл.) [Драма, 2015] HDTVRip 720p [Amedia]

Dracon

246 | 260

11.72 ГБ

В этой теме нет новых непрочитанных сообщений. Власть в ночном городе / Power [S2] (Джон Дэвид Коулз, Энтони Хемингуэй, Джордж Тиллман мл.) [Драма, 2015] HDTVRip [Amedia]

Dracon

304 | 295

7.34 ГБ

В этой теме нет новых непрочитанных сообщений. Власть в ночном городе / Power [s02] (Джон Дэвид Коулз, Энтони Хемингуэй, Джордж Тиллман мл.) [Драма, 2015] WEB-DL 1080p [Amedia]

Dracon

42 | 27

23.38 ГБ

В этой теме нет новых непрочитанных сообщений. Абсолютная власть / Absolute Power [триллер, драма, криминал, 1997] BDRip, Mvo+Sub

salma3

52 | 6

1.46 ГБ

В этой теме нет новых непрочитанных сообщений. Абсолютная власть / Absolute Power [Триллер, драма, криминал, 1997] BDRip 1080p, Mvo+Dvo+2Avo+Sub

salma3

18 | 6

11.56 ГБ

В этой теме нет новых непрочитанных сообщений. Абсолютная власть / Imperium [триллер, драма, криминал, 2016] BDRip 720p, Mvo

salma3

45 | 19

7.13 ГБ


Начать новую тему Ответить на тему  [ 1 сообщение ] 




Для Мосгорсуда, Роскомнадзора и рекламодателей:: mosgorsud-torrent[собачка]yandex.ru